<?xml version="1.0" standalone="no"?>
<!DOCTYPE svg PUBLIC "-//W3C//DTD SVG 1.1//EN" "http://www.w3.org/Graphics/SVG/1.1/DTD/svg11.dtd">
<svg xmlns="http://www.w3.org/2000/svg">
<metadata>Copyright (C) 2023 by original authors @ fontello.com</metadata>
<defs>
<font id="iconsax" horiz-adv-x="1000" >
<font-face font-family="iconsax" font-weight="400" font-stretch="normal" units-per-em="1000" ascent="850" descent="-150" />
<missing-glyph horiz-adv-x="1000" />
<glyph glyph-name="flow-chart-2" unicode="&#xe800;" d="M153 797c-46-6-84-38-97-83-3-13-3-15-3-72 0-57 0-60 3-73 11-38 42-68 80-79 13-4 15-4 93-4 79 0 80 0 94 4 22 6 42 19 57 37 16 19 24 40 26 68l1 15 42 0 41 0 0-266 1-266 5-14c9-28 31-53 58-66 19-10 27-11 57-13l24-1 1-7c2-16 4-24 10-34 13-21 36-36 58-40 15-2 160-2 175 0 33 5 63 35 68 68 2 15 2 76 0 92-5 33-35 62-68 67-15 2-160 2-175 0-22-3-45-19-58-40-6-10-8-18-10-34l-1-8-21 0c-21 0-22 1-32 5-11 6-21 16-26 27-3 7-3 9-4 113l0 105 41 0 42 0 1-8c3-23 9-37 23-51 12-11 23-18 37-21 15-4 177-4 192 0 26 6 46 26 56 52 3 10 4 13 4 59 0 47-1 49-4 59-10 27-30 46-56 53-15 4-177 4-192 0-14-4-25-10-37-22-14-14-20-28-23-51l-1-8-42 0-41 0 0 125 0 125 41 0 42 0 1-8c2-15 4-23 10-34 13-21 36-36 58-40 15-2 160-2 175 0 33 5 63 35 68 68 2 15 2 76 0 92-5 33-35 62-68 67-15 2-160 2-175 0-22-3-45-19-58-40-6-10-8-18-10-34l-1-8-114 0-114 0-1 15c-1 8-3 20-4 27-10 36-41 67-79 79-12 3-15 3-86 4-41 0-79 0-84-1m158-65c12-5 24-18 29-30 3-8 3-13 3-60 0-61 0-64-15-78-15-16-15-16-99-16-84 0-83 0-99 16-14 14-15 17-15 78 0 60 1 63 15 78 15 15 15 15 99 15 69 0 73 0 82-3m568-44l6-6 0-40 0-41-6-5-5-6-82 0-82 0-6 6-6 5 0 41 0 40 6 6 6 5 82 0 82 0 5-5m-4-309c10-5 10-6 10-50 0-44 0-45-10-50-4-2-17-2-83-2-67 0-80 0-84 2-9 5-10 6-10 50 0 25 1 41 2 43 1 2 4 5 7 6 5 4 9 4 84 4 67 0 80-1 84-3m4-316l6-6 0-40 0-41-6-5-5-6-82 0-82 0-6 6-6 5 0 41 0 40 6 6 6 5 82 0 82 0 5-5" horiz-adv-x="1000" />

<glyph glyph-name="heart" unicode="&#xe801;" d="M290 751c-2-1-10-2-17-3-73-10-141-56-182-123-16-26-30-63-35-94-4-26-4-80 2-115 11-77 41-150 89-219 70-100 188-194 302-238 22-8 33-11 51-11 18 0 29 3 51 11 113 44 231 137 301 237 34 49 54 87 71 141 18 53 27 118 24 168-2 23-3 28-8 49-23 92-93 163-185 188-26 7-38 9-71 9-26 0-35-1-49-4-45-10-87-30-121-60-7-6-12-10-13-10 0 0-6 4-12 10-35 29-77 50-121 60-15 3-66 6-77 4m63-65c45-9 84-32 117-71 13-14 16-17 27-18 12-1 18 2 30 15 28 32 51 49 82 62 75 31 160 14 217-43 30-31 50-68 57-110 5-33 1-93-10-138-14-54-45-117-81-165-65-84-166-162-261-200-16-6-20-7-31-7-11 0-15 1-31 7-90 36-187 109-250 187-44 54-78 123-93 184-7 30-9 50-10 84-1 25-1 34 1 48 15 87 84 154 170 167 18 2 47 1 66-2" horiz-adv-x="1000" />

<glyph glyph-name="calendar-x" unicode="&#xe802;" d="M326 797c-8-2-15-8-20-15-3-5-3-9-4-27l-1-21-10-1c-90-10-157-61-183-142-7-20-11-45-13-74-2-34-2-363 0-397 4-54 16-93 40-129 25-37 63-63 109-77 40-11 60-12 238-12l147 0 11-8c34-22 69-33 110-33 53 0 98 18 136 54 40 38 61 87 61 143 0 42-10 76-33 111l-7 11 0 156c0 187-1 207-12 247-23 84-92 140-186 150l-11 1 0 15c0 23-2 32-10 39-14 15-37 12-48-6-3-5-4-9-5-26l0-21-135 0-135 0 0 15c0 19-2 29-7 36-7 9-21 14-32 11m309-144c1-18 2-21 5-27 15-24 51-18 57 9 1 5 1 15 1 23l0 14 7-1c79-12 124-56 136-133 1-10 2-22 2-27l0-9-343 0-343 0 0 9c0 14 4 43 9 58 14 43 42 74 81 89 13 5 34 11 47 13l7 1 1-20c1-17 1-21 5-26 14-24 50-18 56 9 1 5 2 15 2 23l0 15 135 0 135 0 0-20m208-316c0-57 0-104-1-104-1 0-2 1-3 2-2 2-26 11-39 15-6 2-21 4-32 5-40 4-81-4-115-24-90-52-125-158-84-253l6-13-141 0-141 1-18 4c-63 16-97 50-113 113l-4 18-1 169 0 170 343 0 343 0 0-103m-516-21c-30-16-30-58 0-73 8-4 10-5 21-4 15 0 25 6 33 18 4 8 5 10 5 22 0 12-1 15-5 22-8 12-18 18-33 19-11 0-13 0-21-4m156 1c-13-6-25-23-25-38 0-15 12-32 26-38 3-1 11-3 16-3 18 0 30 8 38 25 9 20-1 46-22 54-7 4-25 4-33 0m-156-126c-30-16-30-58 0-73 8-4 10-5 21-4 15 0 25 6 33 18 4 8 5 10 5 22 0 12-1 15-5 22-8 12-18 18-33 19-11 0-13 0-21-4m457-2c44-12 81-46 96-90 4-12 4-15 4-41 0-25 0-28-4-40-8-23-17-37-35-55-18-18-32-27-54-34-12-4-15-5-41-5-25 0-28 1-41 5-36 12-65 38-81 73-8 17-11 29-12 49-3 41 10 74 39 103 21 20 44 33 70 38 13 2 47 1 59-3m-81-58c-1 0-4-1-7-2-10-2-21-17-21-29 0-9 5-18 19-32l13-12-14-14c-16-16-18-20-18-32 0-15 12-28 26-30 13-1 20 2 36 18l14 14 12-12c13-14 21-18 31-18 19 0 31 12 31 31 0 10-4 18-18 31l-12 12 13 14c15 15 18 22 16 34-2 15-16 26-30 26-11 0-15-2-30-17l-13-13-11 11c-6 6-14 13-17 15-7 4-17 6-20 5" horiz-adv-x="1000" />

<glyph glyph-name="refresh" unicode="&#xe803;" d="M480 797c-117-4-235-59-311-145-73-81-114-183-116-288 0-22 0-23 3-29 15-24 51-19 57 8 1 5 2 15 2 22 0 24 6 63 14 91 35 121 125 216 242 257 45 16 81 22 131 22 71 0 134-15 197-47 48-23 89-54 130-95l25-25-66-1c-65-1-65-1-72-5-10-6-15-15-15-27 0-8 1-11 5-17 3-4 8-8 12-10 6-4 9-4 101-4 68-1 98 0 104 1 12 3 21 11 23 22 3 11 3 211 1 223-6 27-42 33-57 9-4-6-4-7-5-69l0-63-19 17c-68 65-143 110-226 134-47 14-109 21-160 19m429-417c-7-2-15-7-19-14-3-5-4-10-5-33-3-58-16-107-42-158-18-36-37-62-67-93-34-35-65-58-107-78-54-27-108-39-168-39-54 0-96 10-147 35-51 25-103 66-146 114l-16 19 67 0 67 1 7 4c21 12 21 42 0 54l-7 4-101 0c-55 0-103-1-105-1-7-2-15-10-18-17-3-7-4-14-4-117 0-118 0-116 9-126 14-14 40-11 49 6 4 7 4 8 4 69 0 34 0 62 1 62 0 0 10-10 22-22 47-47 93-81 145-106 52-26 95-37 150-41 102-6 206 26 292 90 25 19 68 62 87 87 55 73 84 154 90 244 1 28 0 37-6 45-7 9-21 14-32 11" horiz-adv-x="1000" />

<glyph glyph-name="align-left" unicode="&#xe804;" d="M196 795c-8-3-15-11-17-18-1-2-1-195-1-428l0-423 4-8c12-20 41-20 53 0l4 8 1 45 0 46 238 0c158 0 241 0 250 2 48 6 77 30 89 73 9 32 9 109 0 141-12 43-41 67-89 74-9 1-92 1-251 1l-237 0 0 32 0 32 144 0c160 1 150 0 176 13 24 11 42 34 49 64 8 31 8 104 0 135-9 38-33 62-71 74-10 3-23 3-154 3l-144 1 0 57c-1 49-1 58-4 62-8 15-25 21-40 14m323-197c18-4 25-11 30-29 4-14 4-91 0-105-5-18-12-25-30-29-6-1-52-2-144-2l-135 0 0 84 0 83 135 0c92 0 138-1 144-2m201-353c22-3 32-10 37-27 3-10 3-101 0-111-5-16-15-24-37-27-7-1-105-2-246-2l-234 0 0 85 0 84 234 0c141 0 239-1 246-2" horiz-adv-x="1000" />

<glyph glyph-name="clipboard-text-1" unicode="&#xe805;" d="M388 797c-36-4-60-20-74-49-4-10-9-26-9-32 0-3-1-4-5-5-3 0-13-2-22-3-54-9-92-28-123-61-23-24-38-54-48-94-12-48-14-76-14-244 0-169 2-204 13-247 20-82 71-130 156-149 45-10 78-11 237-11 131 0 175 1 207 5 106 15 166 64 188 155 11 43 13 78 13 246 0 160-2 190-11 235-14 68-50 117-103 143-24 11-52 19-80 23-16 2-18 3-18 7 0 7-5 23-11 35-11 22-28 36-53 43-13 3-17 3-121 4-59 0-114-1-122-1m233-66c4-2 7-6 10-11 3-7 3-10 3-38 0-37-1-40-14-46-7-3-8-3-122-3-130 0-122-1-129 13-3 7-3 11-3 37 0 27 0 30 3 37 4 8 8 11 17 14 3 0 56 1 117 1 106-1 113-1 118-4m-315-87c6-29 22-52 42-63 5-2 14-6 22-8 12-3 17-4 110-4 127-1 144 0 171 14 22 10 38 30 43 53 1 6 2 11 3 11 1 1 8 1 18-1 83-15 117-60 127-164 1-13 1-80 1-189-1-150-1-173-3-188-5-26-9-42-19-62-7-15-9-19-22-31-27-27-63-40-121-45-25-3-331-3-355 0-59 5-95 19-121 45-19 18-28 35-36 67-9 34-9 50-9 225 0 97 0 169 1 180 10 101 43 145 123 161 22 4 24 4 25-1m20-272c-20-5-30-30-18-47 2-4 8-9 11-11 7-3 8-3 155-4 104 0 151 1 157 2 32 6 33 52 2 59-9 3-298 3-307 1m0-167c-21-5-30-30-18-47 2-4 8-8 11-10 7-4 9-4 104-4 54 0 100 1 102 2 7 1 17 10 19 17 5 11 3 24-5 33-10 10-5 10-111 10-54 0-99 0-102-1" horiz-adv-x="1000" />

<glyph glyph-name="send-2" unicode="&#xe806;" d="M726 750c-18-2-36-5-59-12-30-8-385-127-408-136-112-46-168-106-159-172 6-40 30-73 78-105 35-24 73-40 155-68 29-9 54-18 55-19 1-1 10-26 19-55 21-62 31-87 46-116 42-84 95-125 153-117 57 8 106 62 146 159 9 22 125 369 136 405 21 74 16 136-15 180-23 31-59 51-103 56-18 2-22 2-44 0m53-65c29-7 45-23 55-53 5-13 5-55 1-75-5-21-137-415-148-440-23-53-51-90-77-102-10-4-25-4-35 0-26 12-55 49-78 103-5 11-18 49-30 83l-20 61 75 76c68 69 76 77 78 84 7 25-17 47-41 38-3-1-40-37-83-80l-79-78-54 18c-81 27-117 44-148 69-23 20-33 36-33 54 0 14 5 25 21 41 21 22 57 43 101 61 27 10 407 136 421 139 19 4 19 4 41 4 15 0 23 0 33-3" horiz-adv-x="1000" />

<glyph glyph-name="background-layer" unicode="&#xe807;" d="M658 797c-51-3-83-15-107-39-28-28-38-59-40-123l-1-30-59 0c-46-1-62-2-73-4-76-14-114-53-129-129-2-11-3-27-3-73l-1-58-30-2c-64-2-95-12-123-40-20-20-31-45-37-83-3-21-3-169 0-190 6-38 17-63 37-84 21-20 46-31 84-37 21-4 169-4 190 0 38 6 63 17 83 37 28 28 38 59 40 123l2 30 58 1c46 0 62 1 73 3 76 15 115 53 129 129 2 11 3 27 4 73l0 59 30 1c33 1 53 4 71 9 42 13 71 42 83 85 8 27 9 39 9 124 0 86-1 97-9 124-12 43-41 72-83 85-26 8-37 9-115 10-40 0-78 0-83-1m164-64c21-4 31-9 42-19 6-7 10-13 13-20 7-20 8-30 8-115 0-85-1-95-8-115-6-13-19-27-33-32-21-8-31-9-121-8-75 0-85 1-95 3-29 9-42 22-51 51-2 10-3 20-3 96-1 91 0 98 8 120 5 14 19 27 32 33 21 7 27 8 114 8 64 0 84 0 94-2m-311-217c1-43 9-73 24-97 26-39 65-56 131-58l27-1 0-45c0-50-1-73-7-93-6-18-10-26-19-36-10-11-20-16-39-21-20-6-42-8-93-8l-44 0-1 27c-2 43-9 73-25 97-26 39-65 56-131 59l-27 1 0 44c0 51 1 73 7 93 6 18 10 26 20 36 10 11 20 16 39 22 21 6 35 7 89 7l48 0 1-27m-139-243c30-9 42-21 51-51 2-10 3-20 3-95 1-90 0-100-8-121-5-14-18-27-32-33-20-7-30-8-115-8-85 0-95 1-115 8-14 6-27 19-32 33-8 21-9 29-9 115 0 86 1 94 9 115 5 14 18 27 32 32 21 8 26 9 118 8 78 0 88-1 98-3" horiz-adv-x="1000" />

<glyph glyph-name="notif-text-square" unicode="&#xe808;" d="M337 797c-170-9-258-84-279-238-5-34-6-76-6-209 0-188 2-220 21-277 33-97 102-149 220-166 31-4 78-5 207-5 129 0 176 1 207 5 103 15 168 56 205 131 21 40 31 88 35 153 2 44 2 238 0 249-6 27-42 33-57 9l-4-6-1-138c-1-150-1-150-12-192-19-76-60-117-136-136-44-11-39-11-237-11-164 0-181 0-198 3-117 18-165 66-183 182-3 18-3 33-3 199 0 166 0 181 3 199 18 115 66 163 181 182 15 3 37 3 154 4 130 1 137 1 143 4 25 12 21 51-6 57-8 3-213 3-254 1m444 0c-55-5-101-34-126-81-13-24-19-46-19-74 0-29 6-50 19-75 15-27 35-47 62-62 25-13 46-19 75-19 28 0 50 6 74 19 28 15 47 35 62 62 14 25 19 46 19 75 0 28-5 50-19 74-18 35-48 60-86 73-17 6-44 10-61 8m35-64c15-5 29-13 42-25 19-20 27-39 27-66 0-27-8-47-27-66-20-19-39-28-66-28-27 0-47 9-66 28-19 19-28 39-28 66 0 27 9 46 28 66 12 12 26 20 41 24 12 4 37 4 49 1m-532-395c-20-4-30-30-18-47 3-3 8-8 12-10 6-3 8-3 113-4 74 0 109 0 115 1 32 7 33 52 2 60-9 2-215 3-224 0m0-166c-20-5-30-30-18-47 3-4 8-9 12-11 6-3 7-3 196-4 135 0 193 1 199 2 31 6 32 52 2 59-9 3-382 3-391 1" horiz-adv-x="1000" />

<glyph glyph-name="bank-card-tick-2" unicode="&#xe809;" d="M219 733c-77-6-120-29-144-77-10-20-15-37-20-70-3-19-4-415-2-450 4-50 12-80 30-106 17-26 45-45 82-55 32-9 38-9 185-10 132 0 137 0 144 3 4 2 9 6 12 10 4 5 5 7 5 18 0 10-1 13-5 18-2 3-7 8-11 9-6 3-12 4-141 4-116 1-137 1-151 4-48 8-68 22-79 57-9 28-9 35-10 180l-1 134 386 0 386 0 0-33c0-19 1-36 2-40 7-26 42-31 56-7l5 7 0 114c0 119-1 136-8 168-5 23-13 43-24 60-23 34-57 52-114 60-18 3-44 3-293 3-150 1-281 0-290-1m570-63c54-8 75-22 87-57 6-21 8-36 9-93l0-55-386 0-386 0 1 48c2 79 8 110 26 130 17 17 43 26 91 29 37 2 543 1 558-2m-56-373c-76-7-141-57-169-129-17-46-15-105 6-149 20-44 52-76 94-97 22-10 44-17 68-19 84-7 162 38 198 116 21 44 23 103 6 149-32 84-115 137-203 129m58-68c22-7 36-16 54-34 27-27 38-51 40-89 0-18 0-24-3-36-10-40-36-73-71-90-22-11-38-15-61-15-23 0-39 4-61 15-35 17-61 50-71 90-3 12-3 18-2 36 1 38 12 62 39 89 30 30 56 40 99 39 20 0 26-1 37-5m-549-16c-20-4-30-30-18-47 3-3 8-8 12-10 6-3 9-3 92-4 97 0 100 0 110 10 17 16 9 45-13 51-9 2-174 3-183 0m560-44c-2-1-20-16-40-34l-35-33-10 11c-15 15-20 18-32 18-21 0-34-18-30-39 2-7 5-10 27-33 13-13 27-26 30-28 9-4 24-3 32 2 8 7 94 87 97 91 4 7 6 17 4 25-2 8-11 17-18 20-7 3-18 3-25 0" horiz-adv-x="1000" />

<glyph glyph-name="money-x" unicode="&#xe80a;" d="M266 713c-108-7-180-63-204-158-9-33-9-38-10-191l-1-143-7-11c-19-29-29-58-32-94-5-55 14-111 53-152 66-70 173-82 254-28 14 9 35 29 44 41l6 8 168 0c93 0 179 1 193 2 54 3 93 15 129 40 37 25 63 62 77 109 12 40 13 67 12 237-1 142-1 146-9 178-12 53-39 95-80 122-36 25-75 37-129 40-30 2-434 2-464 0m501-67c33-8 55-19 74-38 19-20 31-42 39-75l4-19 0-164 0-164-4-19c-15-63-50-98-113-113l-18-5-174 0c-96 0-175 0-175 1 0 0 1 7 3 13 4 19 3 55-1 76-14 68-61 122-126 147-47 17-110 14-153-8-3-1-7-3-7-3-2 0-1 222 1 236 10 81 56 128 136 139 6 1 120 1 254 1l242 0 18-5m-292-163c-25-4-49-17-70-38-27-27-40-57-40-95 0-38 13-68 40-95 27-27 57-40 95-40 38 0 68 13 95 40 27 27 40 57 40 95 0 38-13 68-40 95-27 28-58 40-97 40-7 0-18-1-23-2m283-1c-8-4-12-7-15-16-3-5-3-21-3-116 0-104 0-111 3-117 4-8 8-12 16-15 8-4 16-4 24 0 8 3 12 7 16 15 2 6 3 13 3 117 0 104-1 111-3 118-4 7-8 11-16 14-8 4-17 4-25 0m-246-60c14-3 27-9 38-20 30-29 30-75 0-104-29-28-71-28-100 0-30 28-30 73-2 102 17 18 39 26 64 22m-263-193c22-7 37-16 55-34 27-27 38-51 39-89 1-18 0-24-3-36-10-40-35-73-71-90-22-11-38-15-61-15-22 0-38 4-61 15-35 17-60 50-70 90-3 12-4 18-3 36 1 38 12 62 39 89 30 30 56 40 100 39 19 0 25-1 36-5m-100-58c-9-5-14-16-14-27 0-11 2-16 17-31l13-12-13-13c-15-16-19-21-19-32 0-18 13-31 31-31 11 0 17 3 32 19l13 13 13-13c15-15 19-18 31-18 17 0 30 13 30 31 0 11-4 19-19 34l-10 10 13 13c10 12 13 15 14 22 4 17-5 33-21 37-15 4-23 0-40-17l-11-11-12 12c-7 7-15 14-18 15-8 4-22 4-30-1" horiz-adv-x="1000" />

<glyph glyph-name="media-forward-10s" unicode="&#xe80b;" d="M493 797c-12-3-20-11-23-23-3-13 0-19 20-45l19-23-24-1c-28-2-46-4-72-9-57-13-119-42-165-80-18-14-47-44-61-60-34-43-62-98-75-149-29-114-10-231 55-327 15-23 29-40 51-62 55-54 122-90 198-107 50-11 118-11 168 0 76 17 144 53 199 108 63 63 101 140 115 229 3 24 4 77 1 102-8 60-31 124-65 173-19 29-23 32-38 33-18 0-31-13-31-31 0-9 1-11 14-31 18-26 36-62 43-86 17-49 21-109 13-159-25-147-142-261-290-281-24-4-66-4-90 0-64 8-124 35-172 76-125 104-158 279-81 422 33 61 86 112 149 142 69 34 153 44 221 26 9-2 19-1 26 2 5 3 12 11 14 16 2 7 2 20-2 26-1 3-22 29-46 59-31 38-45 55-49 57-7 3-16 4-22 3m-109-360c-5-2-16-13-39-39-38-42-41-47-41-59 1-13 7-23 20-28 12-5 24-2 36 9l7 7 0-73c0-48 0-75 2-78 4-12 16-20 29-20 12 0 24 8 29 20 1 3 1 43 1 122 0 111 0 118-3 125-3 7-7 11-15 14-8 4-18 4-26 0m174 0c-33-7-62-30-77-61-11-22-12-29-12-79 0-37 1-46 3-55 12-43 46-76 88-84 60-12 119 24 135 84 2 9 3 18 3 55 0 51-1 57-12 79-14 28-38 49-66 58-18 6-45 7-62 3m48-65c11-5 20-14 25-26 4-9 4-10 4-50-1-47-1-49-15-63-25-25-67-18-84 14-3 7-3 9-3 51 0 42 0 43 3 50 14 27 44 37 70 24" horiz-adv-x="1000" />

<glyph glyph-name="inbox-1" unicode="&#xe80c;" d="M337 797c-170-9-258-84-279-238-5-34-6-76-6-209 0-188 2-220 21-277 33-97 102-149 220-166 31-4 78-5 207-5 129 0 176 1 207 5 103 15 168 56 205 131 21 40 31 88 35 153 2 41 2 277 0 318-3 49-9 83-20 118-26 76-74 124-150 150-36 12-68 17-118 20-36 2-286 2-322 0m363-66c116-19 162-66 181-181 2-15 3-33 4-114l0-96-66 0c-86 0-96-2-124-21-21-14-28-25-55-77-13-26-26-50-28-53-3-3-9-7-14-10l-9-5-87 0c-84-1-87-1-96 3-16 6-21 14-46 63-12 25-25 49-29 54-10 13-24 25-40 33-24 12-25 12-105 13l-71 0 1 96c0 104 1 110 10 149 21 85 70 129 164 144 30 5 45 6 218 5 157 0 176 0 192-3m185-508c-1-60-3-75-12-110-19-76-60-117-136-136-44-11-39-11-237-11-198 0-193 0-237 11-87 21-128 71-144 173-2 12-3 34-3 72l-1 55 67 0c96 0 88 4 126-70l24-49 15-15c10-10 17-15 26-20 24-12 26-12 114-12 101-1 118 0 141 14 29 16 36 26 66 84 12 25 25 49 28 52 6 6 19 14 28 16 4 0 36 1 72 1l63 0 0-55" horiz-adv-x="1000" />

<glyph glyph-name="bell-2" unicode="&#xe80d;" d="M475 797c-95-8-185-63-235-144-17-28-31-58-38-88-8-29-9-43-10-117-1-70-2-71-6-86-7-23-12-34-45-88-16-27-31-53-33-59-25-62 1-127 61-155 22-11 96-31 143-40l25-4 6-15c22-50 62-85 115-100 19-5 54-6 75-1 57 11 104 51 125 104l4 11 10 2c69 13 140 32 163 44 28 14 50 40 61 72 4 12 5 15 5 37 0 37-1 38-45 111-45 76-44 75-46 170-1 38-2 75-3 82-11 68-40 125-88 173-53 54-120 85-196 91-23 1-23 1-48 0m59-64c95-14 170-77 201-168 11-31 13-57 13-130 0-56 2-67 11-97 7-24 12-34 45-90 17-28 32-55 33-60 9-26-5-60-31-72-27-13-118-35-175-42-51-7-64-8-130-8-66 0-79 1-128 7-62 9-150 30-179 44-12 5-24 18-29 29-5 11-5 30-1 42 2 4 17 31 34 60 33 55 41 71 49 101 7 27 8 47 8 108 0 56 2 74 8 97 9 31 24 60 42 84 11 15 35 38 49 49 30 22 71 40 109 46 16 2 55 3 71 0m-42-121c-7-2-14-8-19-15l-4-6 0-77c0-42 1-78 1-81 4-11 18-21 30-21 12 0 27 10 30 21 0 3 1 39 1 80 0 74 0 76-4 83-6 12-21 19-35 16m-32-609c37-1 120 1 126 3 4 1 2-2-6-12-42-46-111-48-155-4-14 13-16 17-10 16 3-1 23-2 45-3" horiz-adv-x="1000" />

<glyph glyph-name="weight-scale" unicode="&#xe80e;" d="M378 797c-169-9-257-84-279-238-4-34-6-76-6-209 0-188 3-220 22-277 32-97 102-149 220-166 29-4 75-5 165-5 141 0 182 3 235 21 97 33 149 102 166 220 4 31 6 78 6 207 0 129-2 176-6 207-11 78-39 137-83 174-48 41-109 61-201 66-35 2-202 2-239 0m280-66c116-19 163-67 182-183 2-17 3-34 3-198 0-164-1-181-3-198-19-117-67-165-183-183-18-3-33-3-157-3-124 0-139 0-157 3-116 18-164 66-182 182-3 18-3 33-3 199 0 166 0 181 3 199 15 101 55 151 139 173 43 12 57 13 208 12 117 0 135 0 150-3m-203-115c-54-7-109-27-152-56-23-15-44-32-48-39-5-8-6-19-2-28 4-10 91-149 97-155 6-6 13-10 23-10 9 0 15 3 27 13 19 15 40 26 65 32 18 4 55 4 73-1 24-6 46-17 64-32 10-9 17-12 26-12 9 0 17 4 22 10 6 6 94 148 98 156 3 8 2 19-3 27-8 13-53 45-86 61-62 30-136 42-204 34m74-61c37-4 68-13 102-29 20-10 46-26 46-29 0-1-54-88-57-91 0 0-8 3-17 7-65 33-140 33-205 0-10-4-18-7-18-7-3 3-57 90-57 91 0 3 26 19 46 29 51 25 105 35 160 29" horiz-adv-x="1000" />

<glyph glyph-name="media-sliders-2" unicode="&#xe80f;" d="M432 733c-29-5-52-19-68-40-12-18-18-36-20-67l-1-16-133 0c-90 0-135-1-138-2-11-4-19-16-19-29 0-13 8-25 19-29 3-1 48-2 138-2l133 0 1-16c2-24 5-38 13-53 12-26 34-43 65-52 10-3 21-3 161-3 141 0 152 0 162 3 30 9 52 26 65 51 8 16 11 30 13 54l1 16 49 0c32 0 52 1 55 2 11 4 19 16 19 29 0 13-8 25-19 29-3 1-23 2-55 2l-49 0-1 16c-2 24-5 38-13 54-12 25-34 42-64 51-9 3-22 3-158 3-81 1-151 0-156-1m300-63c10-3 17-9 22-18l5-9 0-64 0-63-5-9c-5-10-12-16-23-19-10-3-285-3-295 0-11 3-18 9-23 19l-5 9 0 63 0 64 4 7c6 13 12 17 27 21 12 3 284 2 293-1m-467-395c-29-5-52-19-67-41-13-18-18-36-21-66l-1-16-49 0c-31 0-52-1-55-2-11-4-19-16-19-29 0-13 8-25 19-29 3-1 24-2 55-2l49 0 1-16c2-24 6-38 13-54 13-25 35-43 65-51 10-3 21-3 162-3 140 0 151 0 161 3 30 8 53 26 65 51 8 16 11 30 13 54l1 16 133 0c90 0 135 1 138 2 11 4 19 16 19 29 0 13-8 25-19 29-3 1-48 2-138 2l-133 0-1 16c-2 24-5 38-13 54-12 25-34 42-64 51-9 3-21 3-157 3-81 0-152 0-157-1m300-63c11-3 17-9 23-19l5-9 0-63 0-63-5-10c-6-9-13-15-24-18-9-3-285-3-295 0-11 3-18 9-23 18l-5 10 0 63 0 63 4 8c7 13 12 17 28 21 11 3 283 2 292-1" horiz-adv-x="1000" />

<glyph glyph-name="moon" unicode="&#xe810;" d="M371 797c-19-2-48-14-80-32-116-65-198-173-227-301-10-44-14-103-9-148 20-190 162-352 350-399 77-20 166-19 240 2 44 13 81 28 117 50 36 21 59 40 91 72 39 39 61 71 66 95 4 15 3 22-1 35-6 21-25 35-53 39-11 2-16 2-41-1-16-3-39-5-53-5-121-4-239 58-309 162-38 58-60 134-56 203 2 41 9 75 26 118 10 26 12 34 12 51 0 31-19 54-49 59-11 1-15 1-24 0m11-64c0-2-4-13-8-24-21-53-28-88-30-140-4-98 29-194 92-272 68-84 170-140 278-153 31-4 84-2 118 3 15 2 24 3 25 2 7-7-54-75-90-102-61-45-129-72-204-80-23-3-70-2-92 0-119 16-224 81-291 181-26 39-48 93-57 137-18 88-5 181 36 258 42 81 108 144 190 182 22 10 22 10 28 10 3 0 5-1 5-2" horiz-adv-x="1000" />

<glyph glyph-name="music-circle-dashed" unicode="&#xe811;" d="M482 797c-43-1-106-14-121-23-15-10-17-33-5-46 10-11 20-12 48-5 35 9 51 11 97 11 45 0 59-1 95-11 28-7 46-14 73-27 52-26 97-61 131-105 22-27 25-31 31-34 15-6 33 1 40 16 3 6 4 20 1 25-1 3-6 10-11 16-69 95-175 160-292 178-14 3-71 7-74 6 0 0-6 0-13-1m-255-95c-13-5-58-48-79-76-28-36-48-71-64-112-4-11-7-21-7-26 0-14 12-28 25-29 20-2 29 5 40 32 15 39 36 75 61 104 12 14 24 27 53 54 9 7 11 11 12 17 6 25-19 46-41 36m388-108c-12-1-28-5-92-22-83-23-85-24-101-37-7-6-19-21-22-29-6-16-7-20-7-116 0-52 0-95 0-95-1 0-5 1-11 3-5 1-16 2-24 2-28 0-48-8-68-28-20-20-29-40-29-69 0-28 9-48 29-68 22-22 41-29 73-28 22 1 35 5 51 17 13 9 23 20 30 35 11 20 11 22 11 125l0 94 87 24c48 13 89 24 90 24 3 1 3-2 3-43l0-44-8 2c-13 4-33 5-47 2-32-7-61-33-72-64-5-16-5-47 0-63 8-22 28-45 49-56 53-27 120 3 138 61 2 9 3 19 3 157 0 162 0 158-12 179-12 24-41 39-71 37m16-66c3-3 3-6 3-20l0-17-87-24c-48-13-89-24-90-24-1 0-2 5-2 17 0 20 3 27 13 31 3 2 37 11 75 22 72 20 82 21 88 15m270-75c-9-2-18-12-21-21-1-6-1-11 1-24 4-21 5-76 3-98-9-75-38-145-84-202-14-18-49-51-66-64-44-33-100-60-151-71-60-12-128-11-185 5-20 6-31 5-40-4-7-7-10-13-10-22 0-11 5-21 13-26 7-5 30-11 57-16 26-5 30-5 58-7 106-6 208 25 294 90 25 19 68 62 87 87 65 87 96 190 90 295-2 30-6 56-10 63-6 12-22 19-36 15m-825-73c-11-3-21-13-23-25-2-8 2-55 5-77 7-41 19-80 28-89 14-14 40-10 49 8 5 10 4 16-2 38-11 35-18 75-18 101 0 16-2 27-7 33-7 9-21 14-32 11m541-102c24-12 24-48 1-61-19-10-41-2-50 17-6 13-3 26 8 37 11 12 26 15 41 7m-244-43c12-6 17-14 19-27 1-12-1-19-7-27-13-16-39-17-53 0-7 8-9 12-9 22 0 11 2 15 9 23 11 12 28 16 41 9m-206-129c-13-8-18-27-12-40 6-12 53-56 68-66 9-5 22-5 31 1 13 7 19 27 12 40-1 3-10 12-20 20-9 9-22 21-29 29-16 16-22 20-34 20-6 0-11-1-16-4" horiz-adv-x="1000" />

<glyph glyph-name="grid-apps-add" unicode="&#xe812;" d="M154 797c-44-4-74-22-89-53-12-24-12-24-13-139-1-114 0-135 7-156 13-38 43-60 93-66 10-1 50-1 120-1 112 1 114 1 136 10 29 11 48 34 57 66 2 10 3 22 3 132 0 110-1 122-3 132-13 46-45 70-102 75-22 2-187 2-209 0m481 0c-50-5-82-29-96-71-7-21-8-35-7-146 1-103 1-106 4-119 5-17 10-28 19-40 13-17 30-27 56-35 13-3 14-3 129-3 115 0 116 0 129 3 22 6 34 13 47 26 20 20 28 41 31 78 1 14 1 56 1 116-1 101-1 102-10 126-9 26-30 47-56 56-24 9-24 9-132 10-55 0-107-1-115-1m-261-64c17-3 25-10 30-24 3-9 3-228 0-238-5-16-16-23-40-26-19-2-187-2-206 0-21 2-32 8-38 19l-4 8 0 118c0 129-1 123 10 134 4 4 14 8 24 10 10 2 215 1 224-1m487-3c11-5 15-8 19-19l4-8 1-108c0-95 0-110-2-119-4-14-9-20-19-25-14-7-25-8-132-7-114 0-113 0-125 13-13 12-13 11-13 125-1 66 0 104 1 112 2 15 8 27 15 32 13 9 16 9 133 9l110-1 8-4m-715-413c-16-3-37-10-47-17-24-15-36-35-43-69-3-12-3-24-3-120 0-84 0-109 2-119 8-42 29-69 63-80 24-9 25-9 126-10 97-1 127 0 147 6 35 9 59 32 70 66 7 21 8 35 7 146-1 102-1 106-4 118-7 26-19 45-36 57-11 9-22 14-39 19-13 3-15 3-123 4-61 0-115-1-120-1m570-43c-8-4-12-8-15-16-2-5-3-15-3-56l0-50-50 0c-45 0-51-1-57-3-8-4-12-8-15-16-5-11-2-27 7-35 8-7 13-8 65-8l50 0 0-50c0-46 1-52 4-58 3-7 7-11 15-14 11-5 25-3 34 5 1 1 4 6 6 9 3 6 3 12 3 58l0 50 50 0c46 0 52 0 58 3 7 4 11 8 14 16 4 8 4 16 0 24-3 8-7 12-14 16-6 2-12 3-58 3l-50 0 0 50c0 45 0 51-3 57-4 8-7 12-16 15-8 4-17 3-25 0m-338-21c12-4 21-13 25-25 2-8 3-18 3-109 1-108 0-118-7-133-5-10-11-15-25-19-9-2-24-2-118-2l-108 1-9 4c-10 4-14 8-19 19l-4 8-1 109c0 116 0 121 9 134 4 6 17 13 29 15 6 1 55 1 113 1 95 0 104 0 112-3" horiz-adv-x="1000" />

<glyph glyph-name="scan-4" unicode="&#xe813;" d="M251 797c-80-7-153-61-183-136-13-35-17-64-16-143 1-51 1-52 4-58 13-21 44-20 55 1 3 6 3 12 4 77l1 70 5 14c16 54 54 91 107 108l15 4 70 1c64 1 70 1 76 4 25 12 21 51-6 57-9 3-105 3-132 1m366 0c-20-5-30-30-18-47 3-4 8-9 12-11 6-3 10-3 77-4l70-1 14-4c53-17 91-55 108-108l4-14 1-71c1-71 1-71 5-77 15-24 51-19 57 8 2 11 2 99 0 128-5 63-34 117-83 155-35 27-73 42-118 46-24 2-121 2-129 0m-278-167c-30-3-55-15-78-37-19-17-34-43-39-66-3-16-3-46 0-62 11-48 54-91 102-101 15-3 45-3 61 0 48 10 91 53 101 101 3 16 3 46 0 61-7 31-29 63-56 82-25 17-59 25-91 22m335 0c-45-6-79-45-79-92 0-27 8-48 27-66 18-19 39-27 66-27 26 0 47 8 65 27 19 18 28 39 28 66 0 26-9 47-28 65-21 21-49 31-79 27m-289-69c16-7 28-20 36-36 5-10 5-12 5-29 0-17 0-19-5-30-8-15-20-28-36-36-12-6-13-6-31-6-18 0-19 0-31 6-15 8-28 21-35 36-5 11-5 13-5 30 0 17 0 19 5 29 9 19 24 33 45 40 6 3 12 3 24 3 14 0 17-1 28-7m321 1c10-7 13-14 12-26 0-9-1-12-6-17-7-9-14-13-26-12-9 1-12 2-17 6-9 7-13 14-12 27 1 8 2 11 6 16 7 10 14 13 27 12 8 0 11-1 16-6m-75-224c-47-5-87-34-108-78-8-17-12-33-12-56 0-10 2-23 3-31 10-47 53-90 101-101 16-3 46-3 61 0 49 11 91 54 102 102 3 15 3 45 0 61-7 31-29 63-57 82-25 17-58 25-90 21m46-68c15-8 28-21 35-36 5-11 6-13 6-30 0-17-1-19-6-29-7-16-20-29-35-36-12-6-13-6-31-6-18 0-19 0-31 6-16 7-28 20-35 36-5 10-6 12-6 29 0 17 1 19 6 30 9 19 24 33 44 40 7 2 12 3 25 2 14 0 17-1 28-6m-601-15c-8-2-15-7-20-15-3-6-3-7-4-57-1-80 3-109 16-144 11-26 31-57 51-76 38-36 83-55 136-60 28-2 116-2 127 0 28 6 32 45 7 58-6 3-12 3-76 4l-70 1-15 4c-53 17-91 55-107 108l-5 15-1 70c-1 64-1 70-4 76-4 8-11 13-20 16-7 2-8 2-15 0m223 0c-45-6-79-45-79-92 0-27 8-48 27-66 18-19 39-27 66-27 26 0 47 8 65 27 19 18 28 39 28 66 0 26-9 47-28 65-21 21-49 31-79 27m610-41c-7-2-15-8-19-15-4-6-4-8-5-56-1-49-1-51-6-65-15-53-54-92-107-107-14-5-16-5-65-6l-50-1-6-4c-10-7-15-15-15-27 0-8 1-11 5-17 9-12 14-13 48-14 69-1 109 6 149 29 63 37 103 100 109 174 2 26 2 75 0 85-4 17-21 28-38 24m-578-27c10-7 13-14 12-26 0-9-1-12-6-17-7-9-14-13-26-12-9 1-12 2-17 6-9 7-13 14-12 27 1 8 2 11 6 16 7 10 14 13 27 12 8 0 11-1 16-6" horiz-adv-x="1000" />

<glyph glyph-name="clipboard" unicode="&#xe814;" d="M388 797c-36-4-60-20-74-49-4-10-9-26-9-32 0-3-1-4-5-5-3 0-13-2-22-3-54-9-92-28-123-61-23-24-38-54-48-94-12-48-14-76-14-244 0-169 2-204 13-247 20-82 71-130 156-149 45-10 78-11 237-11 131 0 175 1 207 5 106 15 166 64 188 155 11 43 13 78 13 246 0 160-2 190-11 235-14 68-50 117-103 143-24 11-52 19-80 23-16 2-18 3-18 7 0 7-5 23-11 35-11 22-28 36-53 43-13 3-17 3-121 4-59 0-114-1-122-1m233-66c4-2 7-6 10-11 3-7 3-10 3-38 0-37-1-40-14-46-7-3-8-3-122-3-130 0-122-1-129 13-3 7-3 11-3 37 0 27 0 30 3 37 4 8 8 11 17 14 3 0 56 1 117 1 106-1 113-1 118-4m-315-87c6-29 22-52 42-63 5-2 14-6 22-8 12-3 17-4 110-4 127-1 144 0 171 14 22 10 38 30 43 53 1 6 2 11 3 11 1 1 8 1 18-1 83-15 117-60 127-164 1-13 1-80 1-189-1-150-1-173-3-188-5-26-9-42-19-62-7-15-9-19-22-31-27-27-63-40-121-45-25-3-331-3-355 0-59 5-95 19-121 45-19 18-28 35-36 67-9 34-9 50-9 225 0 97 0 169 1 180 10 101 43 145 123 161 22 4 24 4 25-1" horiz-adv-x="1000" />

<glyph glyph-name="wallet-minus" unicode="&#xe815;" d="M413 797c-37-4-73-24-100-55-13-15-30-41-44-69l-13-27-17-5c-95-33-163-112-183-214-3-19-3-21-3-142 0-121 1-141 6-176 17-106 79-173 181-196 45-10 50-11 254-11 144 0 191 1 205 3 71 8 118 29 158 68 44 44 64 97 70 180 2 37 1 251-2 267-13 80-56 147-120 189-12 8-16 11-20 19-18 32-52 60-102 85-28 13-144 62-165 68-23 8-48 13-68 16-9 1-18 1-20 1-1 0-9-1-17-1m58-67c7-1 13-3 13-4 1 0-98-230-99-232-1 0-29-1-63-1l-61 0 2 5c1 4 12 29 24 57 11 28 23 56 26 63 14 36 35 70 55 90 14 14 27 22 42 25 11 3 46 1 61-3m116-43c77-32 107-49 128-70 13-13 18-22 24-39 6-20 5-50-4-80-2-6-3-7-6-6-2 0-64 1-139 1l-136 1 45 105c25 57 45 104 46 104 1 0 20-7 42-16m-365-123c0-1-9-22-20-48l-19-46-15-9c-14-9-27-18-42-31l-7-7 2 10c5 23 20 53 34 73 13 17 35 39 51 50 13 9 16 10 16 8m602-58c15-20 26-43 34-69l3-13-13 11c-15 13-30 24-46 32l-10 5 3 10c3 8 6 23 9 41l1 6 5-6c3-3 9-11 14-17m-100-78c65-12 118-61 136-125l4-17 0-76c0-66 0-78-3-91-13-67-41-108-90-132-16-7-35-14-59-18-13-3-32-3-204-4-197 0-213 0-247 7-69 13-110 48-131 109-11 33-15 67-15 137 0 56 2 74 9 95 9 27 25 51 46 71 26 25 57 39 95 45 2 0 103 1 224 1 189 0 223 0 235-2m-348-215c-8-3-17-12-19-19-1-3-2-10-2-14 1-10 8-19 17-24 5-3 9-3 116-3 61 0 113 0 116 1 6 2 16 11 19 17 3 7 3 18 0 25-3 7-13 15-21 17-4 1-43 2-113 2-86 0-108-1-113-2" horiz-adv-x="1000" />

<glyph glyph-name="bank-card-add" unicode="&#xe816;" d="M224 734c-85-7-127-30-152-83-11-24-16-51-19-95-2-37-2-375 0-412 3-44 8-71 19-95 23-48 61-72 131-81 24-3 570-3 595 0 69 9 108 33 130 81 17 38 21 78 20 220 0 96 0 93-10 102-5 5-15 9-21 9-7 0-17-4-22-9-9-9-9-3-10-130-1-125-1-131-10-156-11-34-33-48-84-55-22-3-560-3-582 0-65 9-85 30-92 97-1 10-2 76-2 177l0 161 227 0c217 0 228 0 234 3 8 4 11 8 15 16 3 8 3 16 0 24-4 8-7 12-15 16-6 3-17 3-234 3l-227 0 0 15c0 19 3 44 7 61 10 42 29 58 81 67 14 2 38 2 193 3 160 1 177 1 182 4 13 7 19 25 13 39-4 9-7 12-15 16-6 3-15 3-176 3-93 0-172-1-176-1m565-2c-6-3-12-8-15-13-1-2-2-19-2-51l-1-47-48-1c-41-1-48-1-52-4-18-12-19-39-1-52l7-5 47 0 48-1 0-46c0-45 0-46 4-53 10-17 35-20 49-5 8 8 8 13 8 60l0 44 45 0c47 0 51 1 60 9 15 14 11 40-6 49-6 4-8 4-52 4l-46 0-1 47 0 48-5 6c-9 13-27 18-39 11m-551-540c-11-5-18-17-18-29 0-13 8-25 19-29 3-2 23-2 53-2 30 0 50 0 53 2 11 4 19 16 19 29 0 12-8 24-19 29-7 2-101 2-107 0m186-2c-8-3-11-7-15-15-4-12-1-28 7-35 9-8 10-8 105-8 84 0 90 0 97 3 7 4 11 7 14 15 5 11 3 25-5 34-1 2-6 5-9 6-7 3-13 3-97 3-84 0-91 0-97-3" horiz-adv-x="1000" />

<glyph glyph-name="box-scan" unicode="&#xe817;" d="M269 797c-35-3-66-11-95-26-22-12-37-22-55-40-18-18-28-33-40-55-22-43-28-83-27-169 1-40 1-41 4-47 13-21 44-20 55 1 3 6 3 12 4 69 1 49 2 65 4 74 15 69 62 114 130 128 18 3 485 3 502 0 68-14 115-59 130-128 2-9 3-25 4-75 1-62 1-63 5-69 15-24 51-19 57 8 1 5 1 26 1 48 0 82-6 118-27 160-12 22-22 37-40 55-40 40-89 61-154 66-27 2-430 2-458 0m214-167c-16-2-31-6-44-12-16-8-141-78-149-83-26-18-51-56-59-91-3-14-3-176 0-189 10-37 34-74 61-91 17-11 142-80 152-85 14-5 21-7 40-9 21-2 45 0 64 7 13 4 132 69 158 86 21 14 37 31 50 56 15 31 16 39 15 139 0 91 0 91-12 116-14 28-32 51-54 64-15 9-128 72-142 79-16 8-27 11-47 13-17 2-17 2-33 0m38-63c9-2 147-78 156-85l5-4-90-53c-50-28-91-52-92-52-1 0-42 24-92 52l-90 53 4 3c7 6 147 83 155 85 9 3 34 3 44 1m187-296c-2-15-12-35-24-46-8-8-21-16-80-49l-71-39-1 90c0 55 0 91 1 92 1 1 41 24 89 52l87 51 1-70c0-46 0-73-2-81m-329 100c47-27 86-51 87-52 2-1 2-21 2-92l0-90-71 39c-65 36-72 40-81 50-7 7-13 15-17 24l-6 13-1 78c0 44 0 79 0 79 1 0 40-22 87-49m-303-116c-8-2-15-7-20-15-3-6-3-7-4-47-1-86 5-126 27-169 12-22 22-37 40-55 40-40 89-61 154-66 30-2 424-2 454 0 40 3 68 11 99 26 22 12 37 22 55 40 40 40 61 89 66 154 2 31 2 98 0 109-6 27-42 33-57 8-4-6-4-7-5-69-1-50-2-66-4-75-13-59-50-102-104-121-29-10-17-9-277-9-260 0-248-1-277 9-46 16-81 51-97 97-9 25-10 31-11 98-1 57-1 63-4 69-4 8-11 13-20 16-7 2-8 2-15 0" horiz-adv-x="1000" />

<glyph glyph-name="minus" unicode="&#xe818;" d="M242 380c-20-5-30-30-18-47 3-4 8-8 12-10 7-4 7-4 259-4 180-1 255 0 261 1 32 7 33 52 2 60-9 2-506 2-516 0" horiz-adv-x="1000" />

<glyph glyph-name="monitor" unicode="&#xe819;" d="M229 797c-108-7-156-45-171-136-5-28-6-71-6-211 0-182 2-212 15-251 20-55 58-83 131-93 15-3 39-3 144-4l126-1 0-68 0-68-82 0c-90-1-86-1-96-11-8-9-11-22-6-33 3-6 13-16 19-17 6-2 388-2 394 0 6 1 16 11 19 17 5 11 2 24-6 33-10 10-6 10-96 11l-82 0 0 68 0 68 126 1c119 1 128 1 148 4 29 5 44 9 62 18 34 17 56 45 68 85 6 21 9 41 11 74 2 37 2 296 0 334-3 48-8 73-22 101-8 16-11 20-24 33-13 13-17 16-33 24-20 10-41 16-70 20-18 2-51 2-284 3-145 0-273-1-285-1m556-64c58-6 83-24 93-68 6-27 7-43 7-186l0-139-385 0-385 0 0 139c0 143 1 159 7 186 10 44 34 62 91 68 19 2 551 2 572 0m98-469c-2-19-7-42-13-54-14-28-43-41-105-45-35-2-489-2-527 0-89 5-113 24-121 98l-1 14 384 0 384 0-1-13" horiz-adv-x="1000" />

<glyph glyph-name="hourglass" unicode="&#xe81a;" d="M341 797c-68-6-118-40-136-95-5-14-6-19-6-38-1-16 0-25 2-36 6-28 20-57 39-81 6-7 55-53 111-104 56-51 102-92 102-93 0 0-46-42-101-93-57-51-106-97-112-104-19-24-33-53-39-81-2-11-3-19-2-36 0-19 1-24 6-38 19-56 67-89 139-95 26-2 286-2 312 0 72 6 120 39 139 95 5 14 6 19 6 38 1 17 0 25-2 36-5 28-20 57-39 81-6 7-55 53-111 104-56 51-101 93-101 93 0 1 45 42 101 93 56 51 105 97 111 104 19 24 34 53 39 81 2 11 3 20 2 36 0 19-1 24-6 38-19 56-67 89-139 95-24 2-291 2-315 0m337-66c24-7 43-20 53-37 17-28 9-71-18-105-6-9-210-196-213-196-3 0-206 187-213 196-16 19-25 41-26 64-3 34 15 61 49 74 21 8 21 8 194 7 150 0 164 0 174-3m-74-518c56-51 106-97 109-101 27-34 35-78 18-106-10-17-30-31-54-37-10-3-24-3-177-3-153 0-167 0-177 3-24 6-44 20-54 37-16 28-9 71 17 105 7 9 211 196 214 196 1 0 48-42 104-94" horiz-adv-x="1000" />

<glyph glyph-name="arrow-down" unicode="&#xe81b;" d="M488 733c-5-2-12-9-16-15-3-5-3-31-4-325l0-320-97 97c-53 53-100 100-105 103-16 12-37 8-46-10-5-9-4-24 2-32 3-4 62-64 132-134 88-88 129-128 133-129 8-4 18-4 26 0 4 1 45 41 133 129 70 70 129 130 132 134 6 8 7 23 2 32-9 18-30 22-46 10-5-3-52-50-105-103l-96-97-1 320c-1 294-1 320-4 325-4 6-11 13-17 15-6 2-17 2-23 0" horiz-adv-x="1000" />

<glyph glyph-name="color-swatch" unicode="&#xe81c;" d="M171 797c-25-3-42-9-61-21-26-17-45-43-54-77l-3-13-1-290c0-295 0-315 6-342 8-35 25-66 52-94 26-26 58-44 94-52 27-6 45-7 340-6 272 1 291 1 303 4 51 12 87 48 98 99 2 13 3 23 3 95 0 72-1 82-3 95-11 51-48 88-98 99-10 2-25 3-65 4l-52 1 32 33c35 35 45 47 54 65 9 18 13 34 13 56 0 30-8 53-26 79-11 14-107 110-121 121-26 18-49 26-79 26-22 0-38-4-56-13-18-9-30-19-65-54l-33-32-1 52c-1 40-2 55-4 65-11 49-48 86-97 97-11 3-24 3-89 4-41 0-81-1-87-1m173-67c17-6 30-19 36-36l4-10 0-303c0-342 1-311-13-340-14-28-35-49-62-62-22-11-32-13-60-13-20 0-25 0-36 4-46 14-77 46-93 93l-4 11-1 302c0 327 0 308 8 326 4 7 17 21 24 24 17 9 18 9 106 9 80-1 81-1 91-5m279-116c4-2 12-5 16-8 10-7 112-109 118-118 13-22 13-49-1-70-3-5-74-77-157-160l-151-150 0 190 0 191 58 58c32 32 61 59 64 61 17 9 37 11 53 6m221-384c17-6 30-19 36-36 4-10 4-10 4-94 0-84 0-84-4-94-6-17-19-30-36-36l-10-4-219-1-219 0 135 135 135 135 84 0c83-1 84-1 94-5m-601-58c-28-2-54-23-62-51-4-11-4-31 0-42 4-16 15-30 30-40 12-8 23-11 39-11 16 0 27 3 39 11 22 14 33 35 33 61 0 15-3 26-9 37-16 24-42 37-70 35m14-65c6-5 2-17-7-17-9 0-13 10-7 17 3 4 10 4 14 0" horiz-adv-x="1000" />

<glyph glyph-name="archive-closed" unicode="&#xe81d;" d="M187 797c-62-6-105-36-124-87-9-26-10-37-10-110 0-73 1-84 10-110 14-37 42-65 79-78l15-4 0-186c0-114 0-192 1-201 8-71 42-105 115-116 22-4 432-4 455 0 72 11 106 45 114 116 1 9 1 87 1 201l0 186 15 4c46 16 77 53 87 107 4 22 4 140 0 162-10 53-39 89-85 106-30 11-9 10-349 11-170 0-315-1-324-1m637-64c32-7 52-27 59-59 3-17 3-131 0-148-7-32-27-52-59-58-17-4-631-4-648 0-32 6-52 26-58 58-4 17-4 131 0 148 6 32 26 52 57 58 17 4 632 4 649 1m-43-520l0-189-4-13c-7-26-18-36-43-42-12-3-28-3-234-3-206 0-222 0-233 3-26 6-37 16-44 42l-4 13 0 189-1 189 282 0 282 0-1-189m-360 85c-1-1-4-1-6-2-6-1-17-10-19-17-5-12-2-26 8-35 3-3 8-6 11-7 6-1 165-1 170 0 7 2 17 11 19 18 5 11 3 24-5 32-10 11-7 11-96 11-44 0-81 0-82 0" horiz-adv-x="1000" />

<glyph glyph-name="copy-tick" unicode="&#xe81e;" d="M507 797c-37-3-80-13-104-25-41-20-69-53-84-98-9-25-14-53-16-91-1-18-2-34-2-34 0 0-15-1-34-2-75-4-123-21-158-56-25-25-40-57-50-103-6-29-7-65-7-163 0-124 3-158 17-199 18-53 54-89 107-107 41-14 75-17 199-17 124 0 158 3 199 17 53 18 89 54 107 107 9 25 14 53 16 91 1 19 2 34 2 34 0 0 16 1 34 2 75 4 123 21 158 56 25 25 41 57 50 103 6 29 7 66 7 163 0 123-3 158-17 199-18 53-54 89-107 107-23 9-53 14-86 16-33 2-196 2-231 0m248-64c41-4 72-17 92-36 19-20 32-51 36-92 1-10 2-59 2-130 0-71-1-119-2-130-4-41-17-72-36-92-25-25-69-38-129-38l-20 0 0 55c0 74-2 100-11 135-17 71-61 115-132 132-35 9-61 11-135 11l-55 0 0 20c0 60 13 104 38 129 19 19 52 32 90 36 20 2 242 2 262 0m-235-252c20-4 43-11 56-19 22-12 37-32 47-61 11-32 11-35 12-166 0-83 0-125-2-138-4-42-16-74-36-94-20-19-51-32-92-36-23-3-237-3-260 0-41 4-72 17-92 36-19 20-32 51-36 92-3 23-3 237 0 260 4 41 17 72 36 92 19 19 52 32 90 36 7 1 69 2 137 1 109 0 126 0 140-3m-40-149c-4-3-39-36-77-74l-69-70-31 32c-18 17-34 32-36 33-3 2-9 3-14 3-11 0-20-5-26-15-5-7-6-22-2-29 3-7 89-92 95-95 8-4 20-5 27-1 6 2 174 170 178 177 1 2 2 8 2 13 0 25-26 39-47 26" horiz-adv-x="1000" />

<glyph glyph-name="alarm" unicode="&#xe81f;" d="M492 797c-7-2-14-8-19-15-4-6-4-8-4-36 0-29 0-30 4-36 15-24 51-19 57 8 2 11 2 45 0 55-4 17-21 28-38 24m-333-83c-7-2-15-8-19-15-5-8-5-23 0-31 2-3 14-16 28-30 22-22 25-24 32-26 25-5 43 14 38 38-2 7-4 10-26 32-13 14-27 26-29 28-7 4-17 5-24 4m670 0c-1 0-4-1-6-1-6-2-52-46-58-56-5-8-5-23 0-31 7-12 20-17 35-14 7 2 10 4 34 29 25 24 27 27 29 35 3 14-2 27-13 34-6 3-17 6-21 4m-356-84c-155-10-293-110-350-255-16-40-25-81-28-125-1-13-2-83-2-154l0-131-10-1c-19-2-30-13-30-31 0-8 1-11 5-17 2-4 8-8 11-10l7-4 419 0c301 0 422 0 428 1 17 4 27 20 23 38-3 14-17 24-34 24l-5 0-1 148c0 140-1 149-4 170-12 73-35 130-78 186-82 109-214 170-351 161m67-63c100-13 189-67 246-151 22-33 43-82 51-120 6-32 6-42 6-188l0-143-343 0-343 0 0 143c0 146 0 156 7 188 10 49 38 108 69 146 13 15 32 34 46 46 49 42 114 70 179 78 16 3 66 3 82 1" horiz-adv-x="1000" />

<glyph glyph-name="folder-1" unicode="&#xe820;" d="M250 797c-59-4-96-14-126-34-41-27-61-69-69-143-3-30-3-510 0-540 6-61 21-99 48-127 28-28 66-42 127-48 30-4 510-4 540 0 62 6 99 20 127 48 28 28 42 66 48 127 2 16 3 61 3 187 0 173-1 187-8 224-13 66-46 107-104 125-40 12-60 14-174 15-78 1-96 1-101 3-8 3-12 8-64 78-17 22-34 44-38 48-15 17-36 28-61 34-13 3-23 3-70 4-29 0-64-1-78-1m143-66c14-5 23-15 68-75 47-63 57-73 78-80 15-6 24-6 126-8 113-1 121-2 150-11 14-4 29-13 38-20 12-13 23-38 28-69 3-18 3-31 3-201 0-169 0-184-3-201-5-33-14-54-29-68-14-15-34-24-68-29-17-3-34-3-284-3-251 0-267 0-284 3-31 5-53 14-67 27-14 12-25 37-30 70-3 17-3 33-3 284 0 251 0 267 3 284 6 34 16 58 31 71 9 9 27 17 43 21 11 3 19 4 48 8 3 0 36 1 74 0 64 0 70 0 78-3" horiz-adv-x="1000" />

<glyph glyph-name="bank-cards" unicode="&#xe821;" d="M333 755c-39-2-65-8-88-20-38-20-58-55-65-112-1-10-2-18-3-18 0-1-2-2-4-2-2 0-11-1-20-4-53-13-83-46-95-102-5-27-6-67-6-220 0-147 1-191 5-216 11-62 42-96 100-109 32-8 35-8 282-8 217 0 237 0 255 3 81 12 116 49 126 131 1 9 2 17 3 17 0 0 7 2 16 4 57 11 91 45 103 104 5 27 6 67 6 220 0 181-1 208-11 242-14 43-43 70-90 82-32 9-30 9-268 9-123 0-233 0-246-1m472-63c42-5 61-16 70-40 10-25 9-18 9-227 0-179 0-193-3-206-8-37-18-49-49-58l-8-2-1 154c-1 169-1 171-11 203-15 49-48 76-102 87-28 5-51 5-259 5l-209 0 0 6c0 18 9 45 19 56 10 11 31 19 62 22 15 2 469 1 482 0m-125-149c40-5 59-15 69-36 8-19 10-34 11-95l0-57-322 0-323 0 1 58c0 43 1 61 3 70 8 39 23 52 66 60 16 2 473 3 495 0m80-356c-1-91-1-108-4-118-9-38-20-49-57-58-15-3-18-3-251-4-240 0-253 0-278 6-30 7-43 21-51 55-3 12-3 24-4 119l0 106 323 0 322 0 0-106m-554-51c-6-3-13-10-16-16-4-12 0-28 8-35 8-7 13-8 55-8 22 0 42 0 46 1 3 1 8 4 13 9 6 6 8 9 9 16 2 14-4 26-16 32-6 3-10 3-50 3-33 0-45 0-49-2m159-1c-12-6-18-19-16-32 1-7 3-10 9-16 5-5 10-8 14-9 3-1 39-1 81-1 80 0 82 0 91 8 9 8 12 24 7 36-3 6-10 13-16 16-4 1-32 1-85 1-75 0-79 0-85-3" horiz-adv-x="1000" />

<glyph glyph-name="message-dash-x" unicode="&#xe822;" d="M263 778c-40-4-81-18-113-39-7-4-20-15-29-24-40-39-63-91-68-156-2-30-2-263 0-290l2-22-9-14c-16-24-28-52-33-81-3-17-2-51 1-67 11-58 47-107 99-137 54-31 123-33 180-6 42 20 73 51 93 94l8 16 27 0 27 0 93-63c64-43 96-63 102-65 29-8 54-2 75 18 18 19 22 32 22 82l0 29 10 1c47 6 97 30 131 64 39 39 61 90 66 153 2 30 2 258 0 288-3 38-11 69-25 98-36 70-102 114-188 121-22 2-450 2-471 0m485-64c39-7 67-22 91-48 22-22 33-44 42-79 3-10 3-29 4-163 0-103 0-156-2-165-5-44-26-83-59-109-27-22-61-34-101-36-22-1-28-3-35-8-10-9-10-10-11-66-1-57-1-58-11-56-3 0-40 23-98 63-52 34-96 63-99 64-4 2-14 2-34 2l-28 0-1 17c-3 52-23 95-58 131-26 25-55 42-91 52-15 4-19 4-48 4-27 1-33 0-46-3-12-3-31-10-46-17-2-1-2 25-1 139 0 122 0 141 3 151 9 35 20 57 42 79 29 31 64 47 111 51 9 0 116 1 239 1 202-1 225-1 237-4m-407-274c-8-3-12-7-15-15-5-12-2-28 7-35 9-8 5-8 167-8 144 0 153 0 159 3 8 4 12 7 15 15 3 8 3 17 0 25-3 8-7 12-15 15-6 3-14 3-159 3-144 0-153 0-159-3m-103-188c8-1 20-6 30-11 16-7 19-10 34-24 17-18 27-33 34-51 13-39 8-84-14-118-24-37-61-59-106-62-66-6-129 45-141 112-3 15-1 45 3 60 11 42 47 79 92 92 22 7 43 7 68 2m-83-56c-2-1-7-5-12-9-6-7-8-10-9-16-2-13 1-20 17-36l14-14-13-13c-15-14-19-20-19-32 0-19 16-33 35-30 9 1 18 7 32 21l9 10 13-13c7-7 15-13 19-15 15-6 35 2 41 17 2 6 2 18-1 25-1 2-8 10-15 17l-12 13 13 14c14 15 18 22 16 34-3 15-16 26-31 26-10 0-15-2-29-17l-14-13-12 13c-17 17-26 21-42 18" horiz-adv-x="1000" />

<glyph glyph-name="search-favorite-1" unicode="&#xe823;" d="M431 797c-166-11-308-123-359-281-22-68-25-144-9-214 34-151 154-272 305-306 57-13 121-13 178-1 75 17 143 54 199 110 72 72 112 162 118 263 2 29 1 37-8 45-14 15-38 12-48-6-4-5-4-9-5-31-3-52-14-94-37-140-52-102-152-172-267-186-18-2-61-2-80 0-100 13-189 67-245 150-23 34-43 82-51 121-5 26-7 43-7 71 0 55 11 102 35 151 51 105 152 176 268 190 8 1 20 2 27 2 6 0 15 1 20 2 27 6 33 42 10 56-7 5-19 5-44 4m179-53c-38-10-66-38-78-78-5-15-7-46-4-61 11-57 54-110 113-138 36-18 56-18 92-1 44 21 84 60 102 99 28 63 12 134-39 166-17 11-30 15-51 15-20 1-33-1-49-9l-9-5-9 5c-5 2-13 6-19 7-13 3-38 3-49 0m38-62c3-1 10-6 15-10 9-9 17-14 26-14 8 0 18 6 25 15 8 9 18 13 30 12 31-4 50-40 40-77-6-24-25-50-49-68-12-10-42-25-47-25-5 0-29 12-42 20-15 10-34 31-42 44-18 30-20 57-7 82 11 19 33 29 51 21m185-582c-31-4-56-20-69-45-15-29-14-61 5-98 7-15 10-20 21-30 26-26 56-32 88-16 28 13 58 52 66 85 8 31 0 62-22 81-20 17-58 27-89 23m37-64c10-3 15-9 15-17 0-20-26-54-42-54-13 0-31 38-26 55 1 7 8 14 15 17 6 2 28 2 38-1" horiz-adv-x="1000" />

<glyph glyph-name="earphones" unicode="&#xe824;" d="M159 772c-31-5-62-21-86-47-20-21-22-32-21-107 1-57 1-60 13-78 11-18 51-43 79-50 17-4 45-5 62-1 16 4 40 16 51 26l9 8 29 0 28 0 0-73 0-73-12-6c-22-12-39-33-47-58-3-10-3-18-3-109 0-90 0-99 3-108 8-25 25-47 47-58l12-6 0-53c0-33 1-54 2-57 4-11 16-19 29-19 13 0 25 8 29 19 1 3 2 24 2 57l0 53 12 6c22 11 40 33 47 58 3 9 4 18 4 108 0 91-1 99-4 109-7 25-25 46-47 58l-12 6 0 76 0 77 10 5c16 8 38 31 46 46 15 32 14 72-4 102-13 21-35 40-59 47-10 4-15 4-60 5l-50 0-8 7c-30 24-65 35-101 30m650 0c-2 0-7-1-12-2-19-4-40-14-57-28l-7-7-50 0c-46-1-51-1-61-5-23-7-46-26-59-47-18-30-19-70-3-102 7-15 29-38 45-46l10-5 0-302c0-209 1-303 2-306 4-11 16-19 29-19 13 0 25 8 29 19 1 3 2 97 2 303l0 298 28 0 29 0 9-8c11-10 35-22 51-26 17-4 45-3 62 1 30 8 69 33 80 52 11 18 12 21 12 86l0 60-5 12c-4 11-7 16-16 25-19 21-47 38-72 44-11 3-40 5-46 3m-610-66c17-6 31-20 37-38 4-11 5-48 3-64-1-7-4-15-6-20-4-10-18-25-29-30-9-4-12-5-27-5-21 0-31 3-49 17l-12 8-1 53 0 52 7 7c22 22 51 30 77 20m648 0c11-3 22-10 31-20l7-7 0-52-1-53-12-8c-18-14-28-17-49-17-15 0-18 1-27 5-12 6-26 21-31 34-3 8-4 14-4 32-1 12-1 28 0 35 6 42 45 65 86 51m-483-37c17-9 25-22 25-40 0-13-2-19-12-29-12-13-16-14-48-15l-28 0 0 44 0 45 28-1c25 0 29-1 35-4m335-40l0-44-28 0c-32 1-36 2-48 15-9 10-12 16-12 29 0 13 3 22 13 31 11 11 18 13 50 13l25 0 0-44m-326-317c13-10 12-5 12-108 0-103 1-98-12-108-6-5-8-5-19-5-11 0-13 0-18 5-13 11-13 5-12 110l0 94 5 6c8 10 15 13 27 12 9 0 12-1 17-6" horiz-adv-x="1000" />

<glyph glyph-name="bezier" unicode="&#xe825;" d="M424 713c-28-3-53-21-67-45-9-15-12-28-13-54l-1-24-54 0-54 0-2 6c-7 24-29 49-55 64-29 16-77 16-106 0-39-22-61-58-61-102 0-43 22-79 61-101 29-17 77-17 106 0 26 14 48 40 55 63l2 7 40 0 39 0-5-4c-71-53-125-155-130-247l-1-19-15-1c-19-2-33-6-46-14-21-14-36-35-41-57-4-15-4-113 0-128 7-31 32-58 63-68 11-3 15-3 69-3 53 0 57 0 68 3 33 11 59 39 66 71 2 14 2 112-1 125-6 23-20 42-42 57-12 8-26 12-45 14l-14 1 1 16c5 70 41 143 94 190l11 10 4-10c10-27 32-47 61-57 11-3 13-3 89-3 76 0 78 0 89 3 29 10 51 30 61 57l4 10 12-10c52-47 88-120 93-190l1-16-14-1c-19-2-33-6-45-14-21-14-36-35-42-57-3-13-3-111 0-125 6-32 32-60 65-71 11-3 15-3 69-3 53 0 57 0 68 3 31 10 56 37 63 68 4 15 4 113 0 128-5 23-19 42-41 57-13 8-27 12-46 14l-15 1-1 19c-4 71-36 148-86 205-12 14-32 33-44 42l-5 4 39 0 40 0 2-7c5-16 21-39 36-50 23-18 44-25 72-25 44 0 79 21 101 60 17 30 17 77 0 107-22 39-57 60-101 60-28 0-49-7-72-25-15-11-31-34-36-51l-2-6-54 0-54 0-1 24c0 14-2 27-4 33-9 30-32 54-64 64-8 3-17 3-81 3-40 1-77 0-83-1m152-64c7-4 11-8 15-15 2-5 2-14 2-76 0-61 0-70-2-75-4-8-8-11-15-15-5-3-10-3-76-3-61 0-71 0-75 3-8 4-12 7-15 14-3 6-3 11-3 76 0 66 0 71 3 77 3 7 7 10 14 14 5 2 15 3 76 3 66 0 71 0 76-3m-432-42c12-5 25-18 29-30 13-34-12-70-48-70-21 0-41 13-48 33-5 12-4 31 1 41 6 12 20 24 32 28 8 2 25 1 34-2m750 0c12-5 25-18 29-30 8-19 3-40-12-55-20-21-52-21-72 0-12 12-16 23-15 40 1 14 4 23 15 33 11 11 19 15 36 15 6 0 13-1 19-3m-627-418c3-3 8-7 10-10 4-6 4-7 4-53 1-31 0-50-1-54-2-9-9-16-17-20-6-4-9-4-57-3-50 0-50 0-56 4-3 2-8 7-10 10-4 6-4 6-5 54 0 30 1 50 2 54 2 8 10 17 17 20 4 2 17 2 56 2 51 0 51 0 57-4m583 0c3-3 8-7 10-10l4-6 0-52 0-52-4-6c-2-3-7-8-10-10-5-4-6-4-56-4-48-1-51-1-57 3-8 4-15 11-17 19-2 8-2 93 0 101 2 7 10 16 18 19 3 2 16 2 56 2 50 0 51 0 56-4" horiz-adv-x="1000" />

<glyph glyph-name="building-2" unicode="&#xe826;" d="M179 797c-68-5-115-54-126-128-1-9-1-105-1-344l1-331 4-12c7-18 14-29 28-44 21-21 43-32 73-35 11-1 120-1 335-1 293 1 321 1 334 4 66 13 101 46 115 111 3 15 4 21 4 116 1 68 0 105-1 116-5 42-22 76-49 98-28 22-44 27-129 46-115 26-203 46-209 47l-6 2-1 62c0 58-1 63-4 74-11 38-37 75-66 95-11 8-184 94-217 108-27 12-60 18-85 16m47-68c22-7 214-102 224-111 17-14 33-40 38-61 2-9 2-59 2-302l0-290-166 0c-164 0-166 0-175 3-13 5-27 20-32 33l-4 9 1 328c0 299 1 329 3 337 8 25 22 44 39 53 13 6 18 7 38 6 15 0 21-1 32-5m0-223c-1 0-4-1-6-2-6-1-17-10-19-17-5-12-2-26 8-35 3-3 8-6 11-6 6-2 158-2 164-1 10 3 21 18 21 30 0 11-7 22-17 28-5 3-14 3-83 3-43 0-78 0-79 0m409-148l62-14 0-58c0-63-1-69-9-82-7-11-18-21-28-25-8-4-11-5-26-5-13 0-18 1-24 4-12 5-21 13-28 23-10 16-10 19-10 99 0 39 0 72 1 72 1 0 29-6 62-14m-409-19c-1 0-4-1-6-1-6-2-17-11-19-17-5-13-2-27 8-36 3-2 8-5 11-6 6-2 158-2 164 0 10 3 21 17 21 29 0 11-7 23-17 28-5 3-14 3-83 4-43 0-78 0-79-1m565-16c43-10 57-16 71-31 10-10 15-22 19-40 4-19 3-31-4-44-6-13-17-23-30-29-8-4-12-5-25-5-14 0-17 1-26 5-12 6-24 17-30 29l-5 10-1 56c0 31 0 56 1 56 0 0 14-3 30-7m-39-191c21-15 42-21 70-21 21 0 38 4 53 11 4 3 9 5 9 5 3 0 0-87-3-99-7-31-21-48-50-58l-13-4-133-1-133 0 0 87c0 49 0 88 1 88 0 0 4-3 8-6 20-15 44-23 73-23 22 0 37 4 54 12 12 5 37 24 38 28 1 2 4 0 10-6 4-4 12-10 16-13" horiz-adv-x="1000" />

<glyph glyph-name="pie-chart" unicode="&#xe827;" d="M564 769c-39-7-67-31-82-70-11-29-14-59-14-146 0-95 4-121 18-155 18-41 52-66 100-76 10-2 30-2 90-3 108-1 141 1 174 14 14 5 33 17 42 26 31 34 37 85 19 161-17 70-54 127-110 175-46 38-97 61-162 73-21 4-58 4-75 1m-206-61c-28-7-51-16-75-28-110-54-190-153-219-271-23-95-12-195 32-281 52-102 142-177 250-209 39-11 73-16 117-16 47 0 84 6 127 20 133 44 234 152 269 289 7 27 6 38-5 48-13 12-33 11-45-3-4-5-4-7-10-29-23-97-94-183-185-228-80-40-175-46-261-18-51 17-96 45-135 83-29 29-48 55-66 89-26 52-37 100-37 159 0 95 38 184 107 250 45 43 95 70 157 86 24 6 29 10 34 20 11 22-4 45-28 44-5 0-17-2-27-5m265 0c49-8 90-25 125-51 16-12 47-43 59-59 21-28 36-59 45-96 9-41 10-69 3-87-5-10-16-20-28-25-20-8-31-8-130-8-87 0-94 0-106 3-31 8-45 23-55 57-3 12-3 18-4 104-1 99 0 110 8 131 6 17 19 28 36 31 11 3 30 2 47 0" horiz-adv-x="1000" />

<glyph glyph-name="slideshow-horizontal-1" unicode="&#xe828;" d="M419 797c-91-5-141-27-169-77-10-16-14-26-19-45l-4-16-26-1c-32-1-52-4-71-11-43-16-66-47-74-102-3-17-3-35-3-195 0-160 0-177 3-194 8-56 31-87 74-103 19-6 39-10 71-11l26-1 4-16c17-65 57-101 128-115 34-6 52-7 141-7 89 0 107 1 141 7 71 14 111 50 128 116l4 15 26 1c32 1 52 5 71 11 34 13 56 36 67 71 10 32 11 53 11 226 0 173-1 195-11 226-11 35-33 58-67 71-19 7-39 10-71 11l-26 1-4 16c-5 19-9 29-19 45-25 44-66 66-138 74-25 3-150 5-193 3m202-67c34-6 51-13 65-28 17-16 26-42 30-87 3-36 3-494 0-530-8-81-30-105-106-117-20-3-200-3-220 0-76 12-98 36-106 117-3 36-3 494 0 530 7 75 27 101 85 113 29 6 43 7 139 6 88 0 96 0 113-4m-402-380l0-247-19 1c-23 1-42 5-54 10-16 7-24 22-29 51-3 24-3 347 0 370 5 28 12 43 26 50 13 7 38 11 64 12l12 0 0-247m614 242c26-5 37-13 44-31 8-22 8-30 8-211 0-181 0-189-8-211-9-23-29-32-77-35l-19-1 0 247 0 247 19-1c11 0 26-2 33-4" horiz-adv-x="1000" />

<glyph glyph-name="logout-1" unicode="&#xe829;" d="M462 713c-118-7-219-64-279-157-41-63-61-146-56-232 3-55 14-98 36-144 18-37 38-66 67-94 62-60 141-93 234-99 31-2 39-1 48 8 12 12 12 31 0 43-8 8-17 10-35 10-42 0-95 14-136 35-25 12-44 25-65 45-58 56-88 130-88 222 0 77 20 140 61 193 14 17 41 43 58 55 46 31 116 54 169 54 7 0 16 1 21 2 23 5 32 34 15 51-7 6-17 10-26 10-3 0-14-1-24-2m253-230c-5-2-13-9-16-15-4-7-3-21 0-28 2-3 16-18 31-34l27-28-178 0c-122 0-180 0-183-1-12-5-20-17-20-29 0-13 8-25 20-29 3-2 61-2 183-2l178 0-27-28c-15-16-29-31-31-34-3-7-4-21 0-27 8-16 25-22 41-15 7 3 117 112 121 120 2 4 3 10 3 15 0 4-1 11-3 14-4 8-114 117-121 120-7 3-19 4-25 1" horiz-adv-x="1000" />

<glyph glyph-name="document-sketch" unicode="&#xe82a;" d="M337 797c-170-9-258-84-279-238-5-34-6-76-6-209 0-133 1-175 6-209 16-115 69-186 165-218 35-11 69-17 118-20 41-2 277-2 318 0 49 3 83 9 118 20 97 33 149 102 166 220 4 31 5 77 5 188 0 102 0 109-3 115-4 9-342 346-350 350-6 2-21 2-120 2-63 0-125-1-138-1m215-129c0-73 2-113 6-135 13-73 52-112 125-125 22-4 63-6 136-6l66 0 0-117c-1-128-1-130-12-172-19-76-60-117-136-136-44-11-39-11-237-11-164 0-181 0-198 3-117 18-165 66-183 182-3 18-3 33-3 199 0 166 0 181 3 199 16 101 56 151 139 173 42 12 57 13 185 13l109 0 0-67m229-203c-47 0-62 1-77 3-51 7-72 23-82 65-6 21-7 38-7 99l0 59 113-113 112-112-59-1m-445-85c-11-2-27-10-36-18-10-8-62-87-66-99-2-6-2-12-2-24 1-15 1-18 6-28 5-11 11-17 64-69 51-51 59-59 68-63 21-10 43-10 63 0 10 4 18 12 69 63 52 52 58 58 63 69 5 10 6 13 6 28 1 12 0 18-2 24-4 12-56 91-66 100-9 8-23 15-36 17-13 2-119 2-131 0m127-65c7-8 47-70 47-73 0-3-105-109-108-109-4 0-109 106-109 109 0 3 41 65 48 73l3 3 58 0 57 0 4-3" horiz-adv-x="1000" />

<glyph glyph-name="notepad" unicode="&#xe82b;" d="M435 793c-6-3-13-9-16-15-1-2-5-15-8-30-3-14-7-27-7-28-1-3-4-3-47-3-25 0-53-1-61-2-44-5-84-35-100-76-4-11-177-565-182-582-8-34-2-69 18-99 22-32 52-51 93-55 12-1 128-1 388-1l371 0 13 4c36 10 66 36 81 70 8 16 10 30 10 50 0 30-41 583-44 595-10 39-38 71-75 86-18 7-25 8-76 9-27 1-50 1-50 2 0 0 2 9 5 20 5 25 6 33 0 42-8 15-27 20-42 11-10-6-13-12-20-46l-6-28-107 0-106 0 3 12c7 26 9 36 7 43-2 8-11 18-18 21-7 3-18 3-24 0m-47-142c-2-4-13-52-15-60-2-10 1-19 8-27 12-14 32-14 44-1 7 7 7 8 18 51l9 39 107 0c71 0 106 0 106-1 0-1-3-16-7-33-7-35-8-40-3-49 8-15 26-21 42-13 11 6 14 11 21 42 3 16 7 34 9 41l2 13 55 0 55 0 10-5c13-6 23-16 30-29 5-11 5-13 5-27 0-15-3-28-71-301-41-163-73-288-75-292-6-12-15-22-28-28l-11-5-291 0-290 0-10 4c-23 12-39 41-35 65 2 8 175 566 180 581 6 14 24 30 39 35 10 3 97 3 96 0m526-445c8-100 13-178 12-185-1-16-7-29-19-40-17-15-21-16-72-16-34 0-43 0-43 2 1 1 3 7 6 12 2 6 26 99 52 206 27 107 49 196 50 198l1 3 0-3c1-2 6-82 13-177m-596 175c-1 0-4-1-7-2-6-1-16-10-19-17-5-12-1-26 9-35 3-3 8-6 10-6 6-2 347-2 353 0 6 1 16 10 19 17 4 11 2 24-6 33-10 11 3 10-186 10-95 0-173 0-173 0m-42-167c-1 0-4-1-6-1-6-2-17-11-19-17-5-13-2-27 8-36 3-2 8-5 11-6 6-2 346-2 352 0 6 2 16 11 19 17 5 11 2 24-6 33-10 11 3 10-186 11-94 0-172 0-173-1" horiz-adv-x="1000" />

<glyph glyph-name="mirror" unicode="&#xe82c;" d="M473 797c-98-7-192-56-256-134-41-50-68-112-78-179-4-25-4-77 0-101 11-70 39-133 84-186 56-66 137-111 226-124 25-4 77-4 102 0 93 13 176 61 233 132 41 51 67 112 77 178 3 21 4 72 1 95-12 91-58 176-125 233-74 62-167 92-264 86m85-67c59-12 112-40 155-83 44-44 72-96 84-157 3-17 4-24 4-57 0-32-1-40-4-56-12-61-40-114-84-157-43-43-96-71-157-84-16-3-23-3-56-3-33 0-40 0-57 3-60 13-113 41-156 84-44 43-72 96-84 157-3 16-4 24-4 56 0 33 1 40 4 57 12 61 40 113 84 157 49 48 106 76 179 87 3 0 20 1 39 0 27 0 38-1 53-4m-316-767c-20-4-30-30-18-47 3-4 8-8 12-10 7-4 7-4 259-4 180 0 255 0 261 1 32 7 33 52 2 60-9 2-506 3-516 0" horiz-adv-x="1000" />

<glyph glyph-name="blend-2" unicode="&#xe82d;" d="M325 837c-163-20-285-138-311-299-3-21-4-73-1-96 13-94 63-181 137-236 39-29 73-46 120-59 11-3 21-5 21-6 0 0 2-7 4-16 14-55 45-111 86-155 44-46 106-82 168-98 109-26 222-2 309 69 65 53 110 131 125 216 4 25 5 71 1 98-7 59-26 110-58 157-48 69-120 121-201 141-9 3-17 5-18 6 0 0-3 9-5 19-23 84-75 156-149 204-42 27-87 44-138 52-19 3-73 5-90 3m73-69c114-15 207-95 238-206 12-45 13-100 1-146-23-90-90-164-177-196-32-11-61-17-96-17-76 1-142 26-195 76-27 26-44 48-60 79-44 89-41 190 11 276 16 27 45 60 71 79 40 30 83 48 133 55 14 2 58 2 74 0m337-289c111-42 183-146 184-264 0-77-27-144-80-198-55-57-125-87-204-87-121 0-226 75-267 189-3 7-5 13-4 14 0 0 10 1 22 2 12 1 27 2 34 4l12 2 23-23c12-12 25-24 28-25 8-5 23-4 31 0 12 6 18 15 18 30 0 12-3 18-16 30l-11 11 18 9c17 9 43 25 57 36l8 6 24-24c14-14 27-25 30-27 20-8 45 5 47 26 2 15 0 20-27 48-14 13-25 26-25 27 0 1 1 2 2 3 5 4 26 37 35 55 6 10 10 18 11 19 0 0 5-4 11-10 12-12 19-15 30-15 23 0 38 21 32 43-1 6-5 11-26 32l-24 24 3 18c1 9 3 25 3 34 1 12 2 17 4 17 1 0 9-3 17-6" horiz-adv-x="1000" />

<glyph glyph-name="bulb-slash" unicode="&#xe82e;" d="M482 797c-50-4-93-16-133-37-86-45-151-128-176-225-11-39-15-93-11-131 3-35 15-79 27-105 5-10 7-13 14-17 17-10 37-3 44 15 4 9 4 14-4 36-28 75-28 146 1 220 33 86 107 153 192 174 46 12 97 11 143-3 39-11 82-36 109-64l8-8-275-275c-156-156-275-276-276-279-9-24 13-48 38-41 7 2 14 7 57 51l50 49 5-4c3-3 11-8 17-13l11-9 0-31c1-28 2-31 6-40 7-16 21-26 40-30 7-1 47-2 137-1l127 0 11 5c26 13 34 31 34 78l0 20 6 3c12 9 35 30 49 45 66 71 104 160 107 253 1 41-3 73-13 112-5 17-9 23-19 28-9 5-18 5-27 1-8-4-12-8-15-16-4-8-3-15 1-32 20-74 12-150-22-220-24-49-60-93-100-121-20-15-26-21-28-32-1-4-2-20-2-36l0-27-114 0-114 0 0 28c0 30-2 40-7 47-2 3-10 10-19 16-8 6-18 13-21 16l-6 5 263 263c145 144 264 265 265 268 4 8 4 21-1 29-7 13-27 19-39 13-3-1-22-19-43-40l-39-39-12 12c-58 55-134 87-215 89-13 1-27 1-31 0m-14-813c-4 0-15-1-25-2-23-3-51-7-77-14-25-6-28-7-34-14-17-18-8-46 18-51 3-1 12 0 25 4 45 11 80 15 125 15 45 0 81-4 125-15 25-7 33-5 44 6 7 8 10 21 6 31-2 6-11 15-16 17-15 6-69 17-99 21-16 1-81 3-92 2" horiz-adv-x="1000" />

<glyph glyph-name="receipt-text" unicode="&#xe82f;" d="M227 797c-91-7-150-55-169-139-1-8-4-25-5-37-2-31-2-641 0-657 6-39 44-67 82-61 6 1 15 3 19 5 4 2 25 16 46 32 43 32 45 33 48 32 2 0 21-19 43-40 22-22 43-42 47-44 25-14 57-13 80 4 5 4 26 24 45 44 28 28 37 36 40 36 3 0 18-10 46-31 50-37 60-41 86-38 32 5 57 30 62 61 1 7 1 87 1 204l0 192 67 1c71 0 77 1 99 9 34 12 64 42 75 77 8 22 9 30 9 104 0 61-1 72-3 85-17 82-77 142-160 159-11 2-42 2-276 3-145 0-271-1-282-1m419-65c-5-11-8-21-9-30-1-8-2-130-2-371 0-333 0-360-3-363-6-6-10-4-50 26-22 16-43 31-48 34-18 9-41 8-62-1-9-5-16-11-52-46-30-30-42-41-45-41-3 0-15 11-46 41-45 45-48 47-69 52-15 3-31 1-44-5-5-3-26-18-48-34-40-30-44-32-50-26-3 3-3 27-3 336l1 332 4 13c6 22 16 40 28 53 6 6 15 13 20 15 11 7 34 14 47 16 6 1 102 2 221 2 200 0 211 0 210-3m145-3c22-7 36-16 54-34 18-18 27-32 35-54l4-13 0-76c0-76 0-76-4-86-7-18-20-31-38-38-9-4-11-4-77-4l-67-1 1 137 0 138 5 8c6 11 15 20 27 25 9 4 11 4 28 3 14 0 22-1 32-5m-549-224c-20-5-30-30-18-47 3-4 8-8 12-10 6-4 8-4 134-4 89-1 130 0 136 1 32 7 33 52 2 60-9 2-257 2-266 0m32-167c-7-1-14-6-18-13-14-19-1-45 23-47 5-1 51-1 104-1 103 1 99 0 108 10 5 5 9 15 9 21 0 11-7 23-17 28-5 3-16 3-105 4-54 0-101-1-104-2" horiz-adv-x="1000" />

<glyph glyph-name="truck-x" unicode="&#xe830;" d="M190 838c-82-7-152-66-172-146-15-54-6-110 25-158l9-13 0-189c0-113 0-196 1-205 3-21 6-33 14-50 16-35 39-58 74-75 21-11 31-13 59-16l23-2 2-6c5-16 22-39 36-50 23-18 44-25 72-25 29 0 50 7 72 25 15 11 31 34 37 51l2 6 56 0 56 0 2-6c8-24 30-49 55-64 30-16 77-16 107 0 25 14 48 40 55 63l2 6 23 2c28 3 38 5 59 16 35 17 58 40 74 75 8 17 12 29 14 50 2 22 2 222 0 230-1 4-16 30-32 59-16 28-33 58-37 65-23 41-78 136-83 143-11 16-26 29-45 38-18 8-28 10-62 11l-31 1 0 45c0 27-1 49-2 54-3 12-11 21-22 23-6 2-49 2-156 2l-147 0-11 8c-39 25-83 36-129 32m59-67c22-7 37-16 54-33 21-22 33-43 38-71 8-44-6-89-38-120-16-16-33-27-53-34-15-5-17-5-40-5-28 0-38 2-61 13-46 22-75 69-76 120 0 38 14 71 41 97 19 19 38 29 63 35 19 5 54 4 72-2m344-236l0-199-4-8c-6-10-15-19-25-24l-8-5-221 0-220-1 0 84 0 84 15-6c28-12 60-18 89-16 53 3 91 21 130 59 28 29 47 64 55 104 2 14 2 52 0 68-3 15-9 35-16 49l-4 11 104 0 105 0 0-200m-444 178c-9-6-14-16-14-27 0-11 2-16 17-31l13-12-13-14c-15-15-19-21-19-31 0-19 13-31 31-31 11 0 17 3 32 18l13 13 13-12c15-15 19-18 31-18 17 0 30 13 30 31 0 11-4 19-19 33l-10 10 13 14c10 11 13 15 14 21 5 21-9 39-29 39-12 0-17-3-32-18l-11-11-12 12c-7 7-15 13-18 15-8 4-22 4-30-1m572-106c15-6 21-14 47-59l23-41-7-1c-19-3-32-9-45-23-10-11-17-23-19-37-2-13-2-137 0-150 5-29 30-54 59-59 6-1 32-2 58-2l48 0 0-54c0-59-1-65-10-83-3-6-11-15-17-22-20-19-39-28-67-28-11 0-14 1-14 3 0 4-13 28-21 38-20 26-56 43-89 43-33 0-69-17-89-43-8-10-21-34-21-38 0-2-10-3-57-3-47 0-57 1-57 3 0 4-13 28-20 38-21 26-57 43-90 43-33 0-68-17-89-43-7-10-21-34-21-38 0-4-26-3-39 0-31 8-58 36-66 67-2 7-3 21-3 63l0 54 218 0c244 0 233 0 258 12 24 12 41 28 53 51 12 24 12 15 12 172l1 140 27 0c24 0 29 0 37-3m135-214l29-50 0-22 0-23-48 0c-46 0-49 1-52 4-3 3-3 5-3 69 0 80-3 72 26 72l20 0 28-50m-501-329c10-6 20-16 25-25 6-11 6-29 2-41-5-12-17-25-30-30-27-10-57 4-67 30-5 12-4 30 2 41 6 12 19 24 32 28 9 2 28 1 36-3m334 0c9-6 20-16 24-25 6-11 7-29 2-41-5-12-17-25-29-30-27-10-58 4-68 30-4 12-4 30 2 41 7 12 20 24 32 28 9 2 28 1 37-3" horiz-adv-x="1000" />

<glyph glyph-name="male" unicode="&#xe831;" d="M613 775c-11-4-18-17-18-29 0-13 8-25 19-29 3-1 38-2 106-2l101 0-83-83-83-83-13 9c-85 66-200 89-306 61-68-17-134-60-179-114-107-127-112-308-12-442 12-15 40-45 57-59 61-51 144-81 225-81 177 0 324 129 351 305 3 22 3 69 1 92-9 63-33 123-71 172l-9 13 83 83 83 83 0-101c0-68 1-103 2-106 4-11 16-19 29-19 13 0 25 8 29 19 1 3 2 50 2 147 0 96-1 144-2 147-2 6-10 14-16 16-5 2-31 3-148 3-91 0-145-1-148-2m-144-209c46-7 89-24 126-51 21-14 56-49 70-70 55-77 69-178 36-267-25-70-77-128-144-162-25-13-61-24-89-28-20-3-63-3-81 0-52 8-99 28-139 60-16 12-42 38-53 53-29 38-48 82-56 132-4 20-4 68 0 90 19 115 104 208 217 237 34 8 80 11 113 6" horiz-adv-x="1000" />

<glyph glyph-name="layers-1" unicode="&#xe832;" d="M459 766c-7-1-15-3-18-4-8-3-256-113-269-120-53-26-74-70-53-112 7-14 26-33 43-43 14-8 257-117 275-123 17-6 30-8 55-8 25 0 41 3 60 11 7 2 68 29 137 60 128 57 141 64 157 80 26 24 33 56 19 85-4 7-10 17-15 22-17 18-27 24-168 86-72 32-137 61-145 63-12 3-19 4-40 5-17 0-30 0-38-2m55-62c7-1 52-20 136-57 68-31 129-58 135-61 11-6 25-19 25-23 0-5-7-13-17-19-11-8-266-121-276-124-12-3-43-2-54 1-10 3-261 114-270 120-10 6-20 16-20 20 0 6 6 13 16 20 12 8 266 121 279 123 13 3 32 3 46 0m-396-282c-11-3-21-12-23-23-4-16 5-49 18-71 11-19 34-42 50-50 19-10 296-132 306-136 14-4 48-4 62 0 10 4 287 126 307 136 15 8 38 31 49 50 14 23 21 54 18 71-5 21-31 30-48 18-8-6-12-13-13-28-3-18-11-34-24-47-11-9-13-10-159-75l-148-66-13 0-12 0-149 66c-146 65-148 66-158 75-14 13-22 29-24 46-1 7-3 15-5 18-3 7-11 13-19 16-8 2-8 2-15 0m0-208c-11-3-21-12-23-23-2-9 1-34 5-46 11-34 34-61 64-76 21-11 296-132 305-135 15-5 50-4 64 0 15 6 299 132 311 139 34 21 57 57 61 96 2 19 0 28-8 36-14 14-38 12-48-5-3-4-4-11-5-21-2-9-4-18-6-23-5-11-17-24-27-30-4-2-72-33-153-69l-145-65-13 0-12 0-146 65c-80 36-149 67-153 69-10 6-22 19-27 30-2 5-4 15-5 23-1 7-3 16-5 19-3 7-11 13-19 15-8 2-8 2-15 1" horiz-adv-x="1000" />

<glyph glyph-name="music-square-x" unicode="&#xe833;" d="M323 797c-131-8-210-56-247-152-12-31-20-72-23-122-2-37-2-267 0-305 2-34 7-65 13-90 23-90 80-148 171-171 48-12 85-14 257-14l135 1 12-8c37-25 81-37 127-33 94 8 170 85 179 179 4 45-7 87-32 127l-9 13 1 135c0 142-1 180-7 218-15 102-62 167-147 199-31 12-72 20-121 23-34 2-275 2-309 0m347-66c108-18 152-61 169-169 3-16 3-34 4-152l1-135-15 7c-75 32-161 15-219-42-58-58-74-144-41-220l6-13-135 0c-118 1-136 1-152 4-108 18-152 62-169 171-3 17-3 33-3 189 0 155 0 172 3 189 12 77 38 121 87 146 28 15 59 23 109 28 3 0 81 0 172 0 149 0 167 0 183-3m-174-65c-44-11-134-37-142-41-13-6-30-22-36-34-8-18-8-20-8-110 0-79 0-85-3-84-7 3-28 5-39 3-53-7-88-57-77-110 6-29 29-55 58-67 9-3 13-4 31-4 18 0 22 1 31 4 21 9 41 26 51 46 9 18 10 24 10 111l0 78 8 3c5 1 40 11 77 21 37 10 69 19 70 19 3 1 3-1 3-31l0-33-10 2c-44 10-88-15-105-58-3-9-4-13-4-31 0-18 1-22 4-31 6-14 13-25 25-36 49-45 127-25 148 39 4 11 4 11 4 145 0 149 0 147-11 167-6 12-17 22-30 28-10 5-14 5-28 6-11 0-21-1-27-2m31-62c2-2 2-8 2-20l0-18-77-21c-43-12-78-21-79-22-1 0-1 9-1 19 0 27-5 24 76 46 36 10 69 19 71 19 3 0 7-1 8-3m-12-228c9-5 15-15 15-26 0-29-37-40-53-15-6 8-6 22 0 30 8 13 25 18 38 11m-219-42c9-6 12-14 12-23 0-11-2-17-10-24-7-6-15-8-24-6-8 1-20 13-22 22-4 13 4 28 16 34 7 2 23 1 28-3m480-102c53-10 96-52 107-104 3-17 3-43-1-59-10-39-36-72-71-89-22-11-38-15-60-15-39 0-68 12-96 40-44 44-53 111-21 164 9 15 32 38 47 47 13 8 31 15 44 17 15 3 38 2 51-1m-83-60c-13-6-19-18-17-31 1-9 6-16 20-30l11-10-13-13c-16-16-19-21-19-32 0-18 13-31 31-31 10 0 16 3 32 19l13 13 12-13c15-15 20-18 31-18 18 0 31 13 31 31 0 11-3 16-18 31l-12 13 12 12c17 17 21 28 15 42-5 12-15 19-28 19-11 0-19-5-33-19l-10-10-13 13c-7 7-16 13-19 15-7 3-20 3-26-1" horiz-adv-x="1000" />

<glyph glyph-name="picture-download" unicode="&#xe834;" d="M337 797c-170-9-258-84-279-238-5-34-6-76-6-209 0-133 1-175 6-209 19-140 93-214 235-234 31-4 78-5 207-5 129 0 176 1 207 5 103 15 168 56 205 131 21 40 31 88 35 153 2 44 2 238 0 249-6 27-42 33-57 9-4-6-4-8-5-58l-1-51-10 8c-27 24-50 33-84 33-27 0-46-6-67-20-4-2-48-39-99-82-50-44-94-80-98-82-15-8-37-8-53-1-4 2-12 8-18 13-29 26-51 35-86 35-25 0-43-5-63-16-5-3-46-30-91-61-46-30-84-56-86-56-2-1-5 10-10 41-3 17-3 33-3 198 0 166 0 181 3 199 16 103 56 152 143 174 40 11 46 11 172 12 109 1 116 1 122 4 24 12 20 51-6 57-9 3-172 3-213 1m405 0c-7-2-14-8-19-15l-4-6 0-92-1-91-18 17c-15 15-19 18-25 20-21 5-39-9-39-30 0-5 1-11 2-13 4-8 92-95 100-99 8-4 16-4 25 0 4 2 22 20 52 50 44 43 46 47 48 54 2 12 0 22-8 30-9 9-24 12-36 6-2-1-11-9-20-18l-17-17 0 86c0 54-1 90-2 94-4 17-21 28-38 24m-381-167c-37-4-68-26-87-60-17-30-17-77 0-107 22-39 57-60 101-60 44 0 79 21 101 60 17 30 17 77 0 107-24 43-68 66-115 60m33-65c19-7 33-27 33-48 0-21-14-41-33-49-27-10-57 4-67 30-5 12-4 31 1 41 6 12 20 24 32 28 8 2 25 1 34-2m421-251c4-2 21-15 39-30l31-26-1-45c0-49-2-67-11-100-19-76-60-117-136-136-44-11-39-11-237-11-164 0-181 0-198 3-68 10-111 31-140 67-8 10-10 14-8 15 5 5 183 123 189 126 12 5 34 6 45 2 11-4 15-7 31-21 22-18 45-27 73-29 26-2 52 5 72 18 7 4 50 40 96 80 104 89 99 85 109 88 11 4 35 4 46-1" horiz-adv-x="1000" />

<glyph glyph-name="route-1" unicode="&#xe835;" d="M191 794c-62-13-110-54-129-110-14-38-14-82-1-123 6-18 20-46 33-65 21-31 55-67 74-78 35-20 81-21 117-1 26 14 66 58 89 98 30 52 38 105 24 156-16 60-60 104-122 121-17 5-67 6-85 2m65-62c6-1 19-6 27-10 29-14 47-37 56-68 4-17 4-45 0-61-8-34-28-68-61-102-19-20-28-25-47-26-20-1-29 3-48 22-27 26-47 53-58 80-7 18-10 29-11 48-3 59 31 105 88 118 13 3 40 3 54-1m236-60c-20-5-30-30-18-47 3-4 8-9 12-11 6-3 10-3 74-4 66-1 68-1 75-5 18-9 27-23 28-45 1-12 0-14-4-24-6-11-10-14-177-161-94-82-175-154-180-159-10-11-21-32-24-47-4-14-4-40 0-56 8-29 26-54 52-69 14-9 28-13 46-16 20-2 120-2 131 1 28 6 32 44 7 57-6 3-12 3-74 4l-67 1-9 5c-23 12-33 40-24 64 2 7 6 12 14 19 6 6 85 76 177 156 152 133 167 147 175 159 27 40 27 87 0 129-7 11-23 26-35 33-15 9-30 14-48 16-16 2-123 2-131 0m-276-11c-6-2-16-9-21-16-14-19-8-47 12-59 9-6 26-8 37-4 16 6 26 22 26 39 0 23-18 41-41 40-5 0-11 0-13 0m518-367c-61-11-112-53-131-110-13-38-13-82 0-123 16-51 69-121 109-144 19-11 49-17 72-14 31 4 48 13 73 37 31 29 52 57 68 89 17 34 22 58 22 94 0 27-2 39-10 63-19 54-67 95-127 107-19 4-57 5-76 1m75-64c48-16 76-55 76-107 1-43-19-85-61-128-25-26-31-29-53-29-23 0-28 3-50 25-22 21-37 42-48 65-12 23-16 38-17 60-4 57 31 104 86 117 17 3 51 2 67-3m-51-69c-7-2-16-9-21-16-14-19-8-47 12-59 9-6 26-8 37-4 15 6 26 22 26 39 0 23-18 41-41 40-6 0-12 0-13 0" horiz-adv-x="1000" />

<glyph glyph-name="login-2" unicode="&#xe836;" d="M492 713c-20-4-30-30-18-47 8-11 14-13 42-14 39-3 59-6 92-17 74-25 133-77 165-144 19-43 29-87 29-141 0-92-29-166-88-222-31-29-65-49-106-62-33-12-54-15-93-18-23-1-26-1-31-5-10-7-14-15-14-27 0-8 0-11 4-16 9-12 15-14 39-14 67 2 137 22 190 55 22 14 38 26 57 45 73 71 110 175 103 289-3 56-14 99-36 145-18 39-39 67-69 96-63 61-145 94-242 98-10 0-21 0-24-1m-17-230c-5-2-13-9-16-15-4-7-3-21 0-28 2-3 16-18 31-34l27-28-178 0c-122 0-180 0-183-1-12-5-20-17-20-29 0-13 8-25 20-29 3-2 61-2 183-2l178 0-27-28c-15-16-29-31-31-34-3-7-4-21 0-27 8-16 25-22 41-15 7 3 117 112 121 120 2 4 3 10 3 15 0 4-1 11-3 14-4 8-114 117-121 120-7 3-19 4-25 1" horiz-adv-x="1000" />

<glyph glyph-name="mouse" unicode="&#xe837;" d="M473 797c-102-8-200-65-259-153-30-45-50-99-56-154-2-22-2-258 0-280 5-40 16-79 34-115 63-126 192-201 332-192 105 7 202 64 262 153 20 31 38 69 46 103 11 40 10 37 11 179 0 91 0 137-1 150-11 103-66 194-152 252-63 42-139 62-217 57m-5-118c0-43 0-54-2-54-4 0-23-13-33-22-11-12-20-28-24-43-3-15-3-113 0-128 7-31 33-58 63-67 8-3 15-4 28-4 21 0 34 4 49 14 13 8 28 24 34 37 9 18 10 25 10 84 0 59-1 66-10 84-7 15-27 35-41 41l-10 5 0 54c0 43 0 53 2 53 9 0 43-8 63-15 37-13 67-33 98-62 45-44 74-99 84-163 3-20 3-266 0-286-10-64-39-119-84-163-18-17-31-27-47-37-46-28-95-42-148-42-53 0-102 14-148 42-16 10-29 20-47 37-45 44-74 99-84 163-3 20-3 266 0 286 15 94 72 172 155 213 26 13 69 26 89 27l3 0 0-54m48-115c3-2 7-6 10-10l5-6 0-52 0-52-5-7c-9-11-13-13-26-13-13 0-20 4-27 14-4 6-4 6-4 54-1 30 0 50 1 54 2 8 10 17 18 20 7 3 23 2 28-2" horiz-adv-x="1000" />

<glyph glyph-name="box-square" unicode="&#xe838;" d="M337 797c-170-9-258-84-279-238-5-34-6-76-6-209 0-188 2-220 21-277 33-97 102-149 220-166 31-4 78-5 207-5 129 0 176 1 207 5 103 15 168 56 205 131 21 40 31 88 35 153 2 41 2 277 0 318-3 49-9 83-20 118-26 76-74 124-150 150-36 12-68 17-118 20-36 2-286 2-322 0m363-66c116-19 163-67 181-183 3-17 3-34 3-198 0-164 0-181-3-198-18-117-66-165-183-183-17-3-34-3-198-3-164 0-181 0-198 3-117 18-165 66-183 182-3 18-3 33-3 199 0 198 0 194 11 238 21 84 70 126 163 141 30 5 45 6 218 5 157 0 176 0 192-3m-217-101c-16-2-32-6-44-12-16-8-141-78-149-83-26-18-51-56-59-91-3-14-3-176 0-189 10-37 34-74 61-91 17-11 142-80 153-85 21-8 46-12 72-9 27 3 38 8 110 48 73 40 89 50 100 61 23 23 39 56 43 86 1 8 2 43 1 94 0 78 0 82-4 94-10 34-31 65-57 82-14 9-144 82-156 86-19 8-48 12-71 9m41-64c10-3 148-79 154-85l4-3-90-53c-50-28-91-52-92-52-1 0-42 24-92 52l-90 53 4 3c7 6 147 83 155 85 10 3 37 3 47 0m184-295c-2-15-12-35-24-46-8-8-21-16-80-49l-71-39-1 90c0 55 0 91 1 92 1 1 41 24 89 52l87 51 1-70c0-46 0-73-2-81m-329 100c47-27 86-51 87-52 2-1 2-21 2-92l0-90-71 39c-65 36-72 40-81 50-7 7-13 15-17 24l-6 13-1 78c0 44 0 79 0 79 1 0 40-22 87-49" horiz-adv-x="1000" />

<glyph glyph-name="compass-1" unicode="&#xe839;" d="M758 798c-15-3-433-107-451-113-51-17-105-65-131-117-4-8-9-19-11-25-4-12-106-421-111-443-2-11-3-21-3-45 0-28 1-32 4-47 8-30 26-57 47-75 14-11 40-24 58-28 19-5 53-6 74-3 21 2 452 110 469 117 59 23 114 82 133 140 4 15 105 418 110 441 5 22 4 69-1 89-13 54-52 93-105 106-18 5-61 6-82 3m62-62c33-7 56-29 64-60 4-13 5-35 3-52-2-15-106-432-112-449-7-21-20-41-41-61-21-21-40-33-62-40-17-6-430-109-443-111-58-8-101 15-113 61-4 13-5 35-3 52 2 16 108 439 113 454 14 37 58 80 94 94 11 4 429 109 447 112 17 3 38 3 53 0m-355-213c-67-14-119-63-136-129-4-15-5-19-5-44 0-25 1-29 5-44 17-63 65-110 127-127 15-4 20-5 44-5 25 0 29 1 44 5 63 17 110 65 127 127 4 15 5 20 5 44 0 25-1 29-5 44-17 63-65 111-127 127-23 6-56 7-79 2m65-62c31-8 59-32 73-62 9-18 11-28 11-49 0-21-2-31-11-49-11-24-30-43-54-54-18-9-28-11-49-11-21 0-31 2-49 11-24 11-43 30-54 54-9 18-11 28-11 49 0 21 2 31 11 49 15 31 46 56 76 63 5 1 11 2 13 2 6 2 35-1 44-3" horiz-adv-x="1000" />

<glyph glyph-name="calculator" unicode="&#xe83a;" d="M378 797c-169-9-257-84-279-238-4-34-6-76-6-209 0-188 3-220 22-277 32-97 102-149 220-166 29-4 75-5 165-5 141 0 182 3 235 21 97 33 149 102 166 220 4 31 6 78 6 207 0 129-2 176-6 207-11 78-39 137-83 174-48 41-109 61-201 66-35 2-202 2-239 0m280-66c116-19 163-67 182-183 2-17 3-34 3-198 0-164-1-181-3-198-19-117-67-165-183-183-18-3-33-3-157-3-124 0-139 0-157 3-116 18-164 66-182 182-3 18-3 33-3 199 0 166 0 181 3 199 15 101 55 151 139 173 43 12 57 13 208 12 117 0 135 0 150-3m-296-104c-37-5-69-34-78-71-3-14-3-71 0-86 7-30 33-58 63-67 12-4 12-4 153-4 141 0 141 0 153 4 30 9 56 37 63 67 3 15 3 72 0 86-7 31-32 57-62 68-11 3-12 3-147 4-75 0-140-1-145-1m280-67c3-2 8-6 10-10 4-5 4-7 4-33 1-22 1-29-2-35-3-8-13-18-21-19-3-1-65-1-137-1-131 1-132 1-137 4-3 2-7 6-10 10l-5 6 0 25c-1 14 0 28 0 32 1 8 11 20 18 24 5 2 30 2 140 2l134-1 6-4m-314-253c-12-4-23-13-27-24-1-3-3-11-3-16 0-12 4-21 11-28 9-10 17-13 30-13 14 0 22 3 31 13 7 7 10 17 10 28 0 16-8 29-22 37-7 3-23 5-30 3m159-1c-10-3-18-10-23-19-4-7-5-10-5-20 0-11 1-14 5-21 9-16 27-23 45-19 30 6 42 41 24 65-10 13-30 19-46 14m163 1c-12-4-23-13-27-24-2-3-3-11-3-16 0-12 3-21 11-28 8-10 17-13 30-13 13 0 21 3 30 13 8 7 11 16 11 28 0 16-8 29-23 37-7 3-22 5-29 3m-330-150c-15-7-22-21-21-39 1-14 7-25 18-32 8-5 10-5 22-5 12 0 15 0 22 5 26 16 26 54 0 70-7 4-10 5-20 5-10 1-13 0-21-4m163 2c-13-6-25-23-25-38 0-16 12-32 26-38 3-2 11-3 16-3 18 0 30 8 38 24 9 20-1 46-22 55-7 3-25 3-33 0m159-2c-30-15-29-58 0-73 31-15 66 11 59 46-5 26-35 40-59 27" horiz-adv-x="1000" />

<glyph glyph-name="airplane" unicode="&#xe83b;" d="M487 788c-39-6-81-51-96-102-5-15-5-15-6-85l-1-70-112-48c-62-27-116-51-120-53-25-12-43-35-53-64-5-13-5-13-5-58 0-49 1-53 12-70 17-27 50-37 82-26 7 2 188 80 194 83 3 2 3-1 3-52l0-55-52-53c-57-57-59-60-64-82-4-17-2-25 11-64 11-35 15-45 23-54 6-8 22-18 33-21 14-4 34-4 46 1 10 3 12 5 83 65 18 15 33 27 35 27 2 0 17-12 35-27 72-60 73-62 83-65 21-8 49-4 68 11 15 11 21 21 34 61 14 40 15 51 11 68-6 22-8 25-64 82l-52 53 0 53 1 53 86-37c107-47 113-49 126-51 26-4 52 8 66 30 11 17 12 21 12 70 0 44 0 45-5 58-10 28-29 52-51 64-2 1-56 25-119 52l-115 50-1 68c-1 73-2 77-11 102-13 30-38 61-63 75-7 4-16 9-20 10-10 2-26 3-34 1m25-66c14-9 27-27 36-47 3-7 3-13 4-84 0-69 1-77 4-83 4-11 11-20 18-25 4-2 59-26 122-54 63-27 118-51 122-53 10-5 16-12 22-24 4-9 4-11 5-42 0-36-1-41-8-40-3 0-52 21-111 46-67 29-110 47-116 48-21 4-41-6-52-26l-5-12-1-65c-1-70 0-82 8-98 4-9 11-17 56-63 29-29 53-55 54-58 2-3 0-9-8-35-10-30-12-34-19-34-2 0-25 19-53 42-29 25-53 43-58 46-13 6-29 9-44 6-6-1-15-4-20-6-5-3-29-21-58-46-28-23-51-42-53-42-2 0-4 1-6 3-3 3-21 57-21 63 0 4 7 12 51 57 72 72 68 62 67 165l0 65-6 11c-11 22-33 32-56 26-4-1-54-22-113-47-58-25-107-46-110-46-7-1-8 4-8 41 1 32 1 33 6 42 9 18 8 18 111 62 52 22 107 46 123 53 32 14 39 20 47 35 4 8 4 8 5 84 1 73 1 76 4 85 5 14 13 27 23 38 16 18 25 20 38 12" horiz-adv-x="1000" />

<glyph glyph-name="shopping-cart" unicode="&#xe83c;" d="M76 797c-20-5-30-30-18-47 9-13 12-14 65-15 51-1 52-1 64-13 8-8 13-17 14-27 1-4-7-102-17-218-19-227-19-233-12-257 9-34 31-64 59-83 11-8 33-18 47-21 11-3 22-3 259-3l247 0 13 3c42 12 80 46 97 85 10 22 10 26 23 197 12 172 13 190 7 212-7 26-22 52-42 70-19 18-38 28-65 36-13 3-16 3-285 4l-272 1-4 9c-6 14-13 24-25 36-19 19-37 28-63 31-16 2-85 2-92 0m732-143c15-6 25-12 36-24 18-19 26-47 22-75l-1-7-250 0-249 0-6-4c-11-7-15-16-15-27 0-9 0-12 4-17 3-4 8-9 12-11 7-3 7-3 253-4l246 0 0-5c0-3-4-57-8-120-9-126-10-128-22-146-8-13-23-26-34-31-20-10-8-10-259-10-147 0-235 1-240 2-33 6-62 36-67 69-2 11 0 32 14 205 9 107 17 197 17 202l1 7 268 0 268 0 10-4m-486-588c-25-7-48-28-56-51-24-68 40-131 107-108 25 9 47 35 52 61 3 12 1 34-3 46-8 22-28 42-50 50-13 4-38 5-50 2m333 0c-12-3-24-10-33-19-36-32-37-87-3-120 33-34 88-33 120 3 18 20 25 47 19 74-6 26-27 51-53 60-12 4-37 5-50 2m-302-62c6-4 12-12 12-19 0-10-10-20-20-20-13 0-22 8-22 21 0 8 4 13 11 18 7 4 12 4 19 0m334 0c6-4 11-12 11-19 0-10-10-20-20-20-13 0-21 8-21 21 0 8 3 13 10 18 7 4 12 4 20 0" horiz-adv-x="1000" />

<glyph glyph-name="chrome" unicode="&#xe83d;" d="M472 797c-178-10-337-131-395-301-14-39-21-78-24-121-6-106 25-208 90-295 19-25 62-68 87-87 87-65 190-96 296-90 90 6 171 35 244 90 25 19 68 62 87 87 65 87 96 190 90 296-6 91-35 170-90 244-19 25-62 68-87 87-60 45-126 73-197 85-17 3-70 7-78 6-1 0-12-1-23-1m76-65c68-9 131-34 186-76 17-12 51-46 64-62 13-15 26-34 25-35 0 0-8 1-16 2-37 5-65 7-117 7-66-1-112-5-168-16-12-2-29-4-38-5-30-3-51-9-76-22-36-19-67-50-85-87-7-14-14-34-16-44 0-4-1-8-2-8-1-1-26 39-43 70-17 31-39 76-52 110l-10 26 6 8c12 13 46 45 60 56 54 41 117 67 185 76 23 4 73 4 97 0m-381-224c32-76 92-173 146-239 6-7 16-20 22-28 44-62 110-94 182-87 15 1 42 6 50 10 4 2-1-10-19-41-28-51-64-104-97-142-11-13-11-13-36-7-52 12-105 37-149 70-17 13-51 46-65 64-37 45-66 104-77 159-12 53-12 113 0 166 6 32 31 96 35 93 0-1 4-9 8-18m602-5c29-3 56-7 76-11 14-2 14-2 17-9 5-12 14-46 18-68 5-26 6-79 4-105-9-75-38-145-84-202-14-18-49-51-66-64-44-33-100-60-151-71-16-3-51-8-60-8l-5 0 9 11c13 16 37 51 52 75 34 55 64 118 85 179 5 12 10 27 13 32 14 27 20 55 20 88 0 54-18 99-56 138-8 8-14 15-14 16 0 0 10 0 21 1 26 2 89 1 121-2m-228-24c22-7 36-16 54-34 18-18 27-32 35-54 4-12 4-16 4-40 0-24 0-28-4-39-7-22-17-39-35-57-18-18-32-27-54-34-12-5-15-5-41-5-25 0-28 0-41 5-22 7-36 16-54 34-18 18-28 35-35 57-4 11-4 15-4 39 0 24 0 28 5 40 7 22 16 36 34 54 30 30 56 40 99 39 20 0 26-1 37-5" horiz-adv-x="1000" />

<glyph glyph-name="bookmarks-add" unicode="&#xe83e;" d="M446 797c-53-6-100-38-125-86-8-15-15-37-17-53 0-6-1-13-2-16l0-5-44 0c-66 0-90-4-119-19-50-27-80-73-86-130-1-13-1-98-1-262l1-244 3-12c16-57 62-80 118-61 7 2 52 26 101 54l88 49 12 0 12 0 89-49c48-28 94-52 100-54 32-11 62-8 85 9 16 12 26 28 33 52 3 12 3 17 4 90 0 43 1 78 2 78 0 0 26-14 57-31 32-18 63-34 69-36 32-11 62-8 85 9 16 12 26 28 33 51l4 13 0 244c0 163 0 249-1 262-8 80-66 138-145 147-21 2-336 2-356 0m363-64c34-7 67-40 74-74 3-13 3-505 0-515-1-3-4-9-7-12-5-5-7-5-15-5-11 0-16 2-96 47l-66 37-1 144c-1 141-1 145-4 158-16 60-59 103-120 119-12 4-18 4-111 4l-98 1 0 6c0 39 34 80 74 90 12 2 356 3 370 0m-249-162c35-8 64-38 73-73 2-9 2-46 2-260 0-175 0-251-2-255-1-4-4-10-7-13-5-4-7-5-15-5-11 0-15 2-113 56-44 25-85 47-91 49-16 6-48 6-64 0-5-2-47-24-91-49-98-54-101-56-113-56-8 0-10 1-15 5-3 3-6 9-7 13-3 9-3 502 0 514 7 33 38 66 72 74 7 2 49 2 184 2 150 0 178 0 187-2m-193-107c-7-2-14-8-19-15-4-6-4-8-4-37l-1-30-30-1c-30 0-31 0-37-5-10-6-15-14-15-26 0-8 1-11 5-17 9-12 14-14 48-14l29-1 1-30c0-28 0-31 4-37 15-24 51-18 57 9 1 5 2 20 2 33l0 25 25 0c31 0 40 2 48 10 17 17 9 46-14 52-4 1-19 2-33 2l-26 0 0 25c0 28-2 38-8 46-6 8-21 13-32 11" horiz-adv-x="1000" />

<glyph glyph-name="volume-slash" unicode="&#xe83f;" d="M913 798c-1-1-4-1-7-2-4-1-36-32-128-124l-123-123 0 9c0 11-4 35-7 48-11 38-36 71-65 87-18 9-27 12-46 14-35 4-75-7-116-31-5-3-35-22-68-43-32-20-62-38-66-40-6-2-16-3-56-3-53-1-68-3-91-11-46-17-75-53-85-106-2-14-2-28-2-123 0-95 0-109 2-123 7-32 20-58 40-77 25-25 54-36 106-39l15-1-80-80c-43-43-80-81-81-83-1-3-2-9-2-14 0-20 17-34 38-29 8 1 17 10 429 422 244 244 423 424 424 427 7 13 2 31-10 39-6 4-17 7-21 6m-363-158c12-6 25-20 31-32 9-20 11-31 12-76l2-43-158-158-158-158-46 0c-34 0-48 1-57 3-32 7-52 26-58 59-4 16-4 214 0 231 6 29 21 47 49 56 9 3 17 4 65 5 48 1 55 1 66 5 18 5 22 7 95 53 69 43 84 51 104 57 18 5 41 4 53-2m328-84c-1 0-4-1-7-2-10-2-21-17-21-28 0-3 4-17 9-31 10-28 18-56 22-84 4-23 4-94 1-116-12-75-34-130-76-191-10-14-10-15-10-25 0-8 1-11 4-17 11-17 37-18 50-2 8 9 30 42 40 61 51 94 70 211 49 320-6 31-23 85-31 100-3 4-7 8-11 10-6 4-16 6-19 5m-107-71c-18-8-22-23-12-49 27-75 18-158-27-224-11-17-14-25-12-35 3-15 15-24 30-24 14 0 21 5 35 27 46 69 62 155 44 237-5 22-15 53-21 60-4 6-16 11-24 11-3 0-9-1-13-3m-158-146c-7-3-12-8-16-15-2-4-3-16-4-101-1-94-1-97-4-109-8-27-21-45-38-53-8-4-13-5-24-6-21-1-37 4-64 18-17 8-23 10-29 10-18 0-31-12-31-31 0-15 8-24 38-38 29-15 55-21 83-21 70 1 117 48 130 130 2 16 3 189 1 197-3 11-18 22-30 22-3 0-8-2-12-3" horiz-adv-x="1000" />

<glyph glyph-name="shield-user" unicode="&#xe841;" d="M476 797c-8-1-22-3-30-5-14-3-219-79-239-89-40-18-76-61-91-110l-3-12-1-177c0-194-1-189 9-218 11-33 32-69 53-91 8-8 39-32 94-74 131-98 131-98 161-107 26-9 45-11 79-10 38 1 58 5 86 19 17 7 23 12 130 92 68 51 98 74 105 82 20 22 40 57 50 87 11 31 10 19 11 207 0 184 0 186-9 211-14 42-47 81-84 100-9 4-192 73-225 85-25 8-64 12-96 10m58-64c16-3 228-82 241-90 19-11 40-39 49-65l4-10 0-159c0-102 0-164-1-174-4-36-24-76-49-100-18-18-193-147-209-155-23-12-35-14-69-14-33 0-45 2-67 13-14 7-197 143-212 157-15 15-32 43-40 66-8 23-8 21-8 196 0 184 0 175 12 199 12 22 28 39 47 49 14 7 222 84 233 87 15 3 53 3 69 0m-51-161c-34-4-65-27-80-61-27-57 6-127 67-144 13-3 39-3 52 0 63 15 98 86 70 144-19 43-62 66-109 61m31-65c16-7 25-21 25-39 0-31-32-51-60-37-17 8-27 28-23 46 4 14 14 26 27 31 7 3 24 2 31-1m-46-177c-54-8-96-39-108-76-11-36 4-74 38-97 30-20 60-29 102-29 37 0 65 7 92 23 55 32 67 91 29 135-9 10-30 25-45 32-22 9-39 12-70 13-16 0-33 0-38-1m66-64c13-3 29-12 38-19 17-15 10-33-20-46-18-9-34-11-58-10-22 0-35 3-50 11-13 7-26 20-26 27 0 16 23 32 56 39 15 3 46 2 60-2" horiz-adv-x="1000" />

<glyph glyph-name="send-1" unicode="&#xe842;" d="M208 755c-59-5-98-40-109-96-4-21-2-61 3-87 10-45 22-74 59-149l28-59 1-13 0-13-28-57c-48-97-63-143-65-198-2-50 8-77 35-105 20-20 43-30 77-33 40-4 88 6 146 29 28 11 414 203 440 219 71 43 108 97 108 157 0 60-37 114-107 157-23 14-402 203-432 216-45 18-83 29-119 32-10 1-20 2-22 1-1 0-8 0-15-1m68-68c23-6 36-10 62-21 31-13 419-208 437-219 20-13 45-39 54-54 9-15 12-26 12-43 0-17-3-28-12-43-9-15-34-41-54-53-21-14-415-212-446-224-75-29-132-31-155-6-12 12-17 30-15 57 2 46 19 93 67 189 11 23 21 43 22 45l1 3 100 0c67 0 104 1 109 2 31 7 32 52 2 60-6 1-38 2-109 2l-102 0-25 52c-40 82-51 108-60 147-4 17-5 24-5 44 0 22 1 25 4 34 7 17 18 27 37 32 5 2 15 2 32 2 20-1 28-2 44-6" horiz-adv-x="1000" />

<glyph glyph-name="money-in" unicode="&#xe843;" d="M472 797c-86-5-170-36-242-90-25-19-68-62-87-87-65-87-96-189-90-295 5-90 35-171 90-245 19-25 62-68 87-87 87-65 190-96 296-90 90 6 171 35 244 90 25 19 68 62 87 87 55 73 84 154 90 244 2 31 0 39-9 48-14 14-37 11-48-6-3-5-4-10-5-33-3-58-16-107-42-158-18-36-37-62-67-93-34-35-65-58-107-78-54-27-108-39-169-39-61 0-114 12-169 39-42 20-73 43-107 78-32 33-50 59-70 99-27 54-39 108-39 169 0 61 13 115 39 169 21 42 43 73 78 107 33 32 59 50 99 70 48 24 109 39 154 39 20 0 29 3 37 10 16 17 8 46-14 51-4 2-9 2-12 2-2 0-13-1-24-1m441 1c-1-1-4-1-7-2-4-1-26-22-86-81l-80-81 0 45c0 52-1 59-10 68-14 14-37 11-49-7l-3-6-1-89c0-61 0-91 1-95 3-9 10-16 18-20 6-3 13-3 92-3 56 0 88 0 94 2 23 5 32 34 15 51-9 9-15 10-67 10l-46 0 81 80c77 78 80 81 81 89 3 14-2 27-13 34-5 3-17 6-20 5m-425-231c-5-3-13-10-16-16-1-2-2-9-3-14l-1-10-13 0c-24 0-43-8-61-26-22-22-32-50-28-82 3-18 6-28 13-41 11-18 27-28 65-41l24-8 0-47 0-47-6 1c-20 3-35 21-35 42 0 9-6 19-14 25-6 4-9 5-17 5-25 0-36-21-29-55 10-44 52-79 94-80l7 0 1-10c1-11 4-17 10-23 12-11 30-11 42 0 6 6 9 12 10 23l1 10 11 0c25 0 46 9 64 27 13 13 20 26 25 43 6 24 3 54-8 74-7 12-21 26-35 33-6 4-22 10-34 14l-23 8 0 47 0 46 5 0c17 0 36-21 36-40 0-8 4-17 9-23 14-14 39-11 49 6 3 5 4 9 4 19 0 27-10 49-31 71-19 19-40 29-64 29l-8 0-1 10c-2 20-14 32-31 31-4 0-9-1-12-1m-20-137c0-19 0-35-1-35-2 0-23 8-29 11-13 7-14 35-2 49 6 7 13 10 24 10l8 0 0-35m95-136c7-5 9-10 10-24 0-14-3-21-13-29-6-4-9-5-17-6l-11 0 0 36 0 35 13-4c8-3 16-7 18-8" horiz-adv-x="1000" />

<glyph glyph-name="search-zoom-out-1" unicode="&#xe844;" d="M431 797c-178-12-329-141-368-315-13-58-13-122 0-180 34-152 154-272 305-306 58-13 122-13 181 0 137 31 249 133 295 268 23 68 26 146 10 218-34 151-154 272-306 306-36 8-79 11-117 9m67-64c101-12 190-66 246-150 23-33 43-82 51-121 5-25 7-42 7-70 0-56-11-103-35-152-35-69-88-122-157-156-49-25-96-36-152-36-55 0-101 11-151 35-105 51-176 152-190 269-2 18-2 62 0 80 8 66 36 130 77 179 14 17 31 34 48 48 46 38 112 66 174 74 17 2 66 2 82 0m-147-310c-1-1-4-1-6-2-6-1-17-10-19-17-5-12-2-26 8-35 3-3 8-6 11-7 6-1 221-1 227 0 6 2 16 11 19 18 5 11 2 24-6 32-10 11-3 11-123 11-60 0-110 0-111 0m482-323c-31-4-56-20-69-45-15-29-14-61 5-98 7-15 10-20 21-30 26-26 56-32 88-16 28 13 58 52 66 85 8 31 0 62-22 81-20 17-58 27-89 23m37-64c10-3 15-9 15-17 0-20-26-54-42-54-13 0-31 38-26 55 1 7 8 14 15 17 6 2 28 2 38-1" horiz-adv-x="1000" />

<glyph glyph-name="building-4" unicode="&#xe845;" d="M183 754c-70-9-113-51-124-120-2-14-2-64-2-342l0-327-13-1c-21-1-33-12-33-31 0-8 1-11 5-17 3-4 8-8 12-10l6-4 461 0c331 0 463 0 470 1 23 5 32 35 15 52-9 9-14 10-73 10l-52 0 0 63 1 63 8 2c40 14 71 48 81 88 2 12 3 21 3 77 0 70-1 75-10 96-14 30-43 57-74 67-12 4-15 5-39 5-24 0-27-1-39-5-37-12-69-46-80-84-3-12-3-16-3-78 0-74 0-80 12-104 15-28 43-53 71-62l7-2 0-63 0-63-83 0-83 0 0 326c0 276-1 329-3 342-10 68-49 108-115 120-12 2-36 2-168 2-84 0-156-1-158-1m318-63c32-6 51-22 59-54l4-13 1-329 0-330-95 0-95 0 0 65c0 69 0 72-8 81-7 8-24 11-35 7-6-2-14-9-16-16-2-4-3-19-3-71l0-66-97 0-98 0 1 330 0 329 4 13c8 29 24 45 51 52 6 1 12 3 15 3 3 1 71 1 152 1 118 0 149 0 160-2m-275-158c-17-10-20-36-6-49 10-9 8-9 125-9 116 0 115 0 124 8 9 8 12 25 7 36-3 6-10 14-16 16-4 1-42 2-116 2l-111 0-7-4m8-153c-20-5-30-30-18-47 3-4 8-8 12-10 6-4 8-4 117-4l111 0 7 5c21 12 21 41 0 52l-7 5-108 0c-60 0-111 0-114-1m609-18c16-4 32-19 39-36 3-9 3-12 3-71l-1-61-4-9c-6-12-17-24-30-30-8-3-11-4-25-4-14 0-17 1-25 4-12 6-24 18-30 30l-4 9-1 61c0 59 0 62 3 71 12 29 44 45 75 36" horiz-adv-x="1000" />

<glyph glyph-name="like-badge" unicode="&#xe846;" d="M478 796c-13-4-27-9-35-14-5-3-27-20-48-38-49-43-42-40-107-41-38-1-51-1-59-4-34-9-65-37-77-71-4-12-4-13-5-64-1-49-1-52-5-61-4-10-6-12-57-73-15-18-22-29-27-44-3-10-4-15-4-38 0-23 1-26 5-37 7-18 13-26 47-66 24-29 33-40 36-48 3-9 4-12 5-61 1-47 1-53 4-63 6-16 15-31 28-44 14-13 26-21 43-27 12-4 13-4 65-5 46-1 53-2 60-4 10-5 13-7 50-39 17-15 35-30 39-33 21-14 46-21 72-19 34 3 45 9 96 52 31 26 42 35 49 38 9 3 13 4 60 5l51 1 14 5c33 11 58 36 69 69l5 14 1 51c1 30 2 53 3 56 4 10 9 17 39 52 16 19 33 39 37 45 17 27 21 68 9 100-5 15-15 29-47 65-21 24-31 37-35 45l-5 11-1 52c-1 46-1 52-4 62-8 23-25 46-45 59-25 16-33 18-95 19-50 1-50 1-59 6-6 2-23 16-46 36-39 34-47 40-66 46-10 4-15 5-35 5-12 0-24 0-25 0m45-66c4-2 23-17 43-35 39-33 50-40 68-47 18-6 33-8 78-8 45 0 50-1 62-12 4-3 10-11 12-16l5-9 1-51c1-51 1-51 5-64 8-23 14-31 48-72 19-21 35-40 36-43 6-12 6-34-1-47-2-4-17-23-33-42-33-37-39-46-46-62-8-19-8-21-9-74-1-50-1-52-5-60-5-10-15-20-25-25-7-4-10-4-59-5-56-1-60-2-82-12-15-8-15-7-55-43-40-34-47-39-64-39-20 0-24 2-68 40-41 36-51 42-73 50-11 3-16 3-63 4-44 1-53 2-59 4-10 5-19 14-25 23l-5 9-1 52c-1 50-1 52-5 65-7 22-16 34-49 73-17 20-32 39-34 43-6 10-6 34 0 45 2 4 18 24 35 45 18 20 34 41 37 45 2 5 7 16 10 25l5 16 1 50c1 57 1 58 14 71 14 15 13 15 72 16 56 1 62 2 84 12 13 6 20 12 55 42 39 34 42 36 51 39 10 3 30 2 39-3m-18-162c-11-3-24-11-31-18-4-3-17-21-29-40-12-18-23-33-24-33-1 0-3 1-6 3-14 10-50 15-78 10-25-4-43-16-51-36l-3-10 0-116 0-117 5-11c6-13 14-22 25-27 13-7 24-8 54-8 30 1 39 3 52 13l6 6 15-13c34-26 39-28 106-28 53 0 60 1 78 11 12 6 27 19 34 30 6 10 8 15 36 103 16 47 23 72 24 80 3 35-23 67-59 72-6 0-26 1-44 1l-32 0 1 6c0 4 2 18 4 31 4 22 4 27 2 35-4 20-15 36-30 47-17 10-37 14-55 9m21-62c3-3 3-7-3-44-3-22-4-35-4-40 3-17 13-32 29-40l10-4 47-1c36 0 49-1 50-3 2-3-47-153-52-159-9-9-13-10-58-10-27 0-43 1-46 2-3 1-17 11-32 22l-25 20 0 73 0 72 37 55c20 30 38 56 39 57 3 3 6 3 8 0m-148-77c2-1 2-23 2-102l-1-99-18-1-18 0 0 100c0 79 1 101 2 102 4 1 31 1 33 0" horiz-adv-x="1000" />

<glyph glyph-name="hamburger-menu" unicode="&#xe847;" d="M117 588c-20-4-30-30-18-47 3-3 8-8 12-10l7-3 377-1c271 0 380 0 386 2 32 6 33 51 2 59-9 2-756 3-766 0m0-208c-20-5-30-30-18-47 3-4 8-8 12-10l7-4 377 0c271-1 380 0 386 1 32 7 33 52 2 60-9 2-756 2-766 0m0-208c-20-5-30-30-18-47 3-4 8-9 12-11l7-3 377-1c271 0 380 1 386 2 32 6 33 52 2 59-9 3-756 3-766 1" horiz-adv-x="1000" />

<glyph glyph-name="drop" unicode="&#xe848;" d="M488 797c-15-3-26-9-53-31-71-56-129-115-179-179-19-25-48-69-63-95-73-133-81-269-21-387 48-95 137-167 242-192 40-10 97-13 137-7 166 24 293 152 315 318 4 35 3 86-4 121-20 100-81 207-181 314-49 53-129 123-152 133-6 3-27 7-31 6 0 0-5-1-10-1m39-80c103-84 189-184 235-275 46-94 57-178 31-261-14-47-40-89-76-126-49-49-106-78-175-88-27-4-74-2-99 3-45 9-90 29-125 56-41 30-75 73-96 119-68 148-11 320 163 493 44 44 107 97 115 97 3 0 11-5 27-18" horiz-adv-x="1000" />

<glyph glyph-name="volume-low" unicode="&#xe849;" d="M559 707c-24-4-48-12-71-25-7-4-41-24-75-46-35-22-67-41-72-43-6-2-13-3-42-3-61 0-92-5-117-17-40-21-63-53-71-102-4-22-4-220 0-242 9-50 32-83 73-102 27-13 54-17 115-17 29 0 36 0 42-3 5-2 37-21 72-43 34-22 71-44 82-49 29-16 55-22 83-22 64 0 111 40 127 109 7 27 7 47 6 263 0 231 0 218-12 252-17 52-55 84-105 90-17 2-21 2-35 0m46-67c18-9 31-27 38-52 7-23 7-45 7-254-1-221 0-209-12-237-6-15-19-30-33-36-19-10-50-7-79 8-9 4-44 25-80 47-35 23-69 43-75 46-20 9-26 10-84 11-48 1-56 2-65 5-29 9-43 27-50 60-3 18-3 206 0 224 7 33 21 51 50 60 9 3 17 4 65 5 58 1 64 2 84 11 6 3 40 24 75 46 91 56 102 61 134 61 13-1 18-2 25-5m193-93c-15-5-23-15-23-31 0-8 1-10 12-27 30-46 42-86 42-139 0-53-12-92-42-139-11-17-12-19-12-27 0-19 13-31 31-31 12 0 18 4 28 17 64 85 76 209 31 307-14 30-35 61-44 67-6 3-17 5-23 3" horiz-adv-x="1000" />

<glyph glyph-name="setting-2" unicode="&#xe84a;" d="M337 797c-170-9-258-84-279-238-5-34-6-76-6-209 0-188 2-220 21-277 33-97 102-149 220-166 31-4 78-5 207-5 129 0 176 1 207 5 103 15 168 56 205 131 21 40 31 88 35 153 2 41 2 277 0 318-3 49-9 83-20 118-26 76-74 124-150 150-36 12-68 17-118 20-36 2-286 2-322 0m363-66c116-19 163-67 181-183 3-17 3-34 3-198 0-164 0-181-3-198-18-117-66-165-183-183-17-3-34-3-198-3-164 0-181 0-198 3-117 18-165 66-183 182-3 18-3 33-3 199 0 198 0 194 11 238 21 84 70 126 163 141 30 5 45 6 218 5 157 0 176 0 192-3m-363-83c-4-2-9-6-12-10l-4-7-1-87c0-60 0-90 2-94 4-14 15-22 29-22 11 0 21 6 27 15l4 7 0 89c0 59-1 91-2 94-6 16-27 23-43 15m299 1c-6-3-12-8-15-13-1-2-2-16-3-36l0-32-11-4c-44-14-79-50-92-94-4-16-6-47-3-63 5-32 25-65 50-84 56-44 132-41 183 8 52 49 57 129 13 187-15 19-42 38-65 45l-13 4 0 32-1 32-5 7c-8 12-26 17-38 11m41-146c21-8 40-29 46-49 5-20 2-48-8-63-16-24-39-36-66-36-17 0-29 3-43 12-32 22-44 64-26 99 6 12 22 28 33 34 19 9 46 11 64 3m-351-97c-27-5-50-17-70-36-53-50-58-130-13-188 14-19 41-38 64-45l13-4 0-32 1-32 5-7c11-16 32-18 47-5 7 7 8 10 9 43l1 33 10 3c45 14 79 50 92 94 5 16 6 47 4 63-12 64-67 112-132 115-11 0-22-1-31-2m49-64c11-3 28-14 37-26 18-23 22-55 8-82-6-12-23-29-35-35-19-9-44-9-62-2-20 8-40 29-46 49-6 20-2 48 9 63 20 31 53 43 89 33m267-70c-8-2-16-8-20-15-4-7-4-7-4-96 0-83 1-91 3-96 11-21 40-22 53-3l5 7 1 88c0 59 0 89-2 93-4 16-20 25-36 22" horiz-adv-x="1000" />

<glyph glyph-name="maximize-circle" unicode="&#xe84b;" d="M472 797c-86-5-170-36-242-90-25-19-68-62-87-87-55-73-85-155-90-245-2-49 4-114 14-127 10-14 33-16 46-3 10 9 11 17 7 40-4 25-6 81-3 105 8 75 37 145 84 203 14 17 48 50 65 63 44 34 99 59 151 70 49 11 109 12 158 3 22-5 40 9 40 29 0 9-2 15-8 21-7 7-12 9-34 13-17 3-70 7-78 6-1 0-12-1-23-1m229-42c-20-5-30-30-18-47 9-13 11-14 67-14l49-1-100-100c-55-55-101-102-102-105-2-2-2-8-2-13 0-21 17-34 38-30 8 2 11 6 109 103l101 101 1-50c0-49 0-50 4-56 15-24 51-18 57 9 1 5 2 37 2 93 0 73-1 86-3 91-3 9-8 14-16 18-7 2-13 3-95 3-48-1-89-1-92-2m198-292c-8-2-18-12-20-21-2-6-2-11 1-27 5-25 6-81 4-105-9-71-35-137-78-194-13-17-46-51-63-65-45-37-105-66-160-78-49-10-109-11-158-2-22 5-40-9-40-29 0-12 7-23 17-28 7-4 43-9 72-11 107-6 209 25 296 90 25 19 68 62 87 87 65 87 96 190 90 295-3 41-8 68-14 77-6 9-22 14-34 11m-528-207c-1 0-4-1-7-2-4-1-30-26-106-102l-101-101 0 44c0 53-1 59-10 68-15 15-38 12-49-6l-4-6 0-89c-1-61 0-92 1-96 2-8 9-16 17-20 7-2 13-3 93-3 56 0 88 1 93 2 24 5 32 35 15 52-9 9-14 10-67 10l-45 0 101 101c98 98 101 102 103 109 3 14-3 28-14 34-5 4-17 6-20 5" horiz-adv-x="1000" />

<glyph glyph-name="receipt-discount-1" unicode="&#xe84c;" d="M227 797c-91-7-150-55-169-139-1-8-4-25-5-37-2-31-2-641 0-657 6-39 44-67 82-61 6 1 15 3 19 5 4 2 25 16 46 32 43 32 45 33 48 32 2 0 21-19 43-40 22-22 43-42 47-44 25-14 57-13 80 4 5 4 26 24 45 44 28 28 37 36 40 36 3 0 18-10 46-31 50-37 60-41 86-38 32 5 57 30 62 61 1 7 1 87 1 204l0 192 67 1c71 0 77 1 99 9 34 12 64 42 75 77 8 22 9 30 9 104 0 61-1 72-3 85-17 82-77 142-160 159-11 2-42 2-276 3-145 0-271-1-282-1m419-65c-5-11-8-21-9-30-1-8-2-130-2-371 0-333 0-360-3-363-6-6-10-4-50 26-22 16-43 31-48 34-18 9-41 8-62-1-9-5-16-11-52-46-30-30-42-41-45-41-3 0-15 11-46 41-45 45-48 47-69 52-15 3-31 1-44-5-5-3-26-18-48-34-40-30-44-32-50-26-3 3-3 27-3 336l1 332 4 13c6 22 16 40 28 53 6 6 15 13 20 15 11 7 34 14 47 16 6 1 102 2 221 2 200 0 211 0 210-3m145-3c22-7 36-16 54-34 18-18 27-32 35-54l4-13 0-76c0-76 0-76-4-86-7-18-20-31-38-38-9-4-11-4-77-4l-67-1 1 137 0 138 5 8c6 11 15 20 27 25 9 4 11 4 28 3 14 0 22-1 32-5m-549-195c-14-6-25-23-25-38 0-16 11-32 25-38 8-4 25-4 33 0 14 6 25 22 25 38 0 15-11 32-25 38-8 3-26 3-33 0m234 0c-5-3-46-43-125-122-128-129-123-122-120-139 1-7 2-10 9-16 6-7 9-9 16-10 17-2 11-8 140 122 129 128 126 125 123 140-2 21-25 33-43 25m6-207c-6-2-18-12-21-19-10-20-4-44 14-56 10-6 27-7 37-3 9 3 18 12 23 20 4 7 4 30 0 37-4 8-13 16-21 19-7 4-23 4-32 2" horiz-adv-x="1000" />

<glyph glyph-name="safebox-2" unicode="&#xe84d;" d="M337 797c-170-9-258-84-279-238-5-34-6-76-6-209 0-188 2-220 21-277 33-97 102-149 220-166 31-4 78-5 207-5 129 0 176 1 207 5 103 15 168 56 205 131 21 40 31 88 35 153 2 41 2 277 0 318-3 49-9 83-20 118-26 76-74 124-150 150-36 12-68 17-118 20-36 2-286 2-322 0m363-66c116-19 163-67 181-183 3-17 3-34 3-198 0-164 0-181-3-198-18-117-66-165-183-183-17-3-34-3-198-3-164 0-181 0-198 3-117 18-165 66-183 182-3 18-3 33-3 199 0 198 0 194 11 238 21 84 70 126 163 141 30 5 45 6 218 5 157 0 176 0 192-3m-388-59c-62-6-105-36-124-87-11-30-10-24-10-235 0-174 0-192 2-206 12-63 51-102 114-114 14-2 32-2 206-2 174 0 192 0 206 2 53 10 89 39 106 85 11 30 11 24 11 235 0 174-1 192-3 206-10 53-39 89-85 106-29 11-22 10-224 11-101 0-190-1-199-1m387-64c32-7 52-27 59-59 1-8 2-22 2-48l0-36-49 0c-53 0-57 0-66-9-14-13-11-39 6-49 7-4 7-4 58-4l51 0 0-52 0-52-51-1c-51 0-52 0-58-4-10-7-15-16-15-27 0-9 1-12 5-17 9-14 11-14 69-15l50 0 0-36c0-25-1-40-2-48-7-32-27-52-59-58-17-4-381-4-398 0-32 6-52 26-58 58-2 7-3 21-3 38l0 26 42 0c23 0 47 1 53 2 27 4 50 17 72 38 27 27 40 57 40 95 0 38-13 68-40 95-22 22-45 34-72 38-6 1-30 2-53 2l-42 0 0 26c0 29 2 44 9 58 9 19 28 33 51 38 16 4 382 4 399 1m-375-186c15-3 29-10 40-22 21-22 26-53 14-81-6-12-21-28-34-34-14-7-24-8-67-8l-37 0 0 73 0 73 37 0c21 0 42 0 47-1m-38-33c-10-3-22-15-25-26-3-11-3-15 0-26 9-30 53-39 74-14 8 8 10 15 10 27 0 6-1 13-2 16-4 8-12 17-20 21-9 5-26 6-37 2" horiz-adv-x="1000" />

<glyph glyph-name="activity-chart-favorite" unicode="&#xe84e;" d="M337 797c-170-9-258-84-279-238-5-34-6-76-6-209 0-133 1-175 6-209 16-115 69-186 165-218 35-11 69-17 118-20 44-2 197-2 207 0 28 6 33 45 8 58-6 3-13 3-123 4-126 1-129 1-170 12-87 21-128 71-144 174-3 18-3 33-3 199 0 166 0 181 3 199 18 115 67 164 182 182 18 3 33 3 199 3 198 0 193 0 237-11 76-19 117-60 136-136 11-41 11-44 12-171l1-117 4-6c15-24 51-18 57 9 2 11 2 163 0 207-3 49-9 83-20 118-26 76-74 124-150 150-36 12-68 17-118 20-36 2-286 2-322 0m345-315c-8-4-11-8-62-74-22-28-43-55-46-58-8-9-6-10-63 35-18 14-37 27-43 30-10 6-11 6-29 6-23 0-34-4-48-16-8-7-103-128-112-143-5-8-5-21-1-30 7-14 25-20 39-14 9 4 11 7 65 76 47 62 51 66 56 66 2 0 19-12 45-32 48-39 56-43 76-44 23-1 39 4 54 17 7 6 102 126 109 138 4 7 4 21 0 29-7 14-26 21-40 14m79-227c-12-2-26-9-37-20-10-10-15-17-25-37-11-22-13-24-31-27-34-6-55-19-67-40-15-29-7-62 25-94 15-15 16-19 13-33-4-16-5-36-2-48 6-39 37-60 76-52 9 2 19 5 33 13 11 5 22 10 25 10 3 0 14-5 25-10 25-13 40-16 58-14 41 7 60 45 49 100-2 7-2 13-1 16 1 3 7 11 14 18 26 27 36 53 30 78-8 31-31 49-73 56-17 3-19 5-30 27-10 20-15 27-26 37-15 16-35 22-56 20m17-69c3-4 9-14 13-24 15-29 36-46 66-51 18-3 28-7 28-11 0-4-4-9-19-25-15-16-23-31-26-49-2-12-2-14 3-44 1-5 2-11 1-14-1-3-1-3-6-2-3 0-12 4-20 9-19 11-29 14-47 14-19 0-28-3-48-14-16-9-25-11-26-6 0 2 1 12 3 23 4 18 4 22 2 33-3 19-11 34-27 50-14 16-18 21-18 25 0 4 10 8 28 11 30 5 51 21 66 53 8 16 17 29 21 29 1 0 3-3 6-7" horiz-adv-x="1000" />

<glyph glyph-name="component" unicode="&#xe84f;" d="M481 797c-18-2-41-8-58-16-30-15-31-15-182-167-95-94-146-146-152-155-18-24-30-54-34-82-3-19-1-54 3-71 6-21 14-40 26-57 10-14 28-34 156-161 87-87 149-147 155-152 23-16 51-27 78-31 19-3 56-1 71 3 27 7 45 16 66 31 8 6 67 65 154 152 151 151 152 152 167 182 17 38 21 86 10 127-5 18-18 44-29 59-12 15-287 291-302 302-37 27-83 40-129 36m47-64c16-4 36-14 50-27 20-17 281-279 287-288 14-21 20-42 20-68 0-21-3-35-12-53l-7-14-148-149c-128-128-150-150-160-155-34-18-75-19-111-1l-16 7-145 145c-100 100-147 148-152 155-24 36-25 86-4 125 4 7 41 45 154 158l149 148 14 7c8 4 19 8 25 10 14 3 41 3 56 0" horiz-adv-x="1000" />

<glyph glyph-name="math-1" unicode="&#xe850;" d="M747 797c-8-2-16-8-20-15-4-6-4-8-4-71l0-64-65-1c-72 0-70 0-80-10-5-6-8-13-8-21 0-8 3-15 8-21 10-10 8-10 80-10l65-1 0-63c0-50 1-65 3-69 2-6 10-13 16-16 11-4 28 0 35 8 8 8 8 12 8 78l0 62 64 1c70 0 68 0 78 10 6 6 8 13 8 21 0 8-2 15-8 21-10 10-8 10-78 10l-64 1 0 62c0 67 0 70-9 79-7 8-19 11-29 9m-654-151c-1 0-4-1-7-2-6-1-16-10-19-17-3-7-3-17 0-24 3-7 13-16 19-17 6-2 317-2 323 0 6 1 16 10 19 17 4 11 2 24-6 33-10 11 2 10-171 10-86 0-158 0-158 0m-11-382c-9-5-16-14-17-24-1-16-2-15 71-88l68-68-67-66c-46-45-68-67-69-72-7-16-1-33 15-41 6-3 20-3 27 1 3 1 36 32 72 68l66 66 65-66c37-36 69-67 72-68 7-4 21-4 28-1 6 4 13 11 15 17 3 7 3 17 0 23-2 3-32 35-69 73l-67 66 66 67c45 45 68 69 69 73 7 16-1 35-16 41-6 2-18 2-25-1-3-1-34-31-71-68-36-36-67-66-67-66-1 0-32 30-68 66-37 37-68 67-71 68-7 4-20 3-27 0m506-24c-10-4-18-17-18-29 0-9 6-20 14-25l7-5 162 0 162 0 6 5c20 13 18 42-3 53-5 3-16 3-165 3-103 0-162-1-165-2m1-252c-7-4-14-10-17-17-6-16 2-35 17-41 3-1 55-2 164-2 179 0 166-1 176 13 5 5 5 7 5 17 0 14-5 23-16 28-7 4-8 4-166 4-127 0-159-1-163-2" horiz-adv-x="1000" />

<glyph glyph-name="trend-down-square" unicode="&#xe851;" d="M337 797c-170-9-258-84-279-238-5-34-6-76-6-209 0-188 2-220 21-277 33-97 102-149 220-166 31-4 78-5 207-5 129 0 176 1 207 5 103 15 168 56 205 131 21 40 31 88 35 153 2 41 2 277 0 318-3 49-9 83-20 118-26 76-74 124-150 150-36 12-68 17-118 20-36 2-286 2-322 0m363-66c116-19 163-67 181-183 3-17 3-34 3-198 0-164 0-181-3-198-18-117-66-165-183-183-17-3-34-3-198-3-164 0-181 0-198 3-117 18-165 66-183 182-3 18-3 33-3 199 0 198 0 194 11 238 21 84 70 126 163 141 30 5 45 6 218 5 157 0 176 0 192-3m-401-249c-8-4-11-7-15-16-3-8-3-17 1-25 4-9 140-145 149-148 8-4 17-4 26 1 7 3 10 8 32 41l25 37 48-47 47-47-9-1c-14-2-22-7-27-19-3-8-3-17 1-25 3-8 7-12 15-15 9-4 100-4 109-1 6 3 13 11 16 17 1 3 1 23 1 53 0 51 0 55-8 64-4 4-15 9-22 9-8 0-19-5-23-9-5-5-8-15-8-23l0-7-63 63c-43 42-65 63-69 65-9 4-18 3-27-1-6-3-10-8-32-41l-25-37-55 55c-37 37-57 56-61 58-8 3-18 3-26-1" horiz-adv-x="1000" />

<glyph glyph-name="pop-out-player" unicode="&#xe852;" d="M337 797c-170-9-258-84-279-238-5-34-6-76-6-209 0-188 2-220 21-277 33-97 102-149 220-166 31-4 78-5 207-5 129 0 176 1 207 5 103 15 168 56 205 131 21 40 31 88 35 153 2 41 2 277 0 318-3 49-9 83-20 118-26 76-74 124-150 150-36 12-68 17-118 20-36 2-286 2-322 0m363-66c116-19 163-67 181-183 3-17 3-34 3-198 0-164 0-181-3-198-18-117-66-165-183-183-17-3-34-3-198-3-164 0-181 0-198 3-117 18-165 66-183 182-3 18-3 33-3 199 0 198 0 194 11 238 21 84 70 126 163 141 30 5 45 6 218 5 157 0 176 0 192-3m-204-373c-45-6-74-32-85-75-3-11-3-19-3-78 0-75 0-81 12-105 12-24 35-41 65-48 11-3 22-3 120-3 99 0 108 0 119 3 40 11 63 34 74 74 3 10 3 19 3 78 0 60 0 68-3 79-11 39-34 62-73 73-10 3-20 3-115 3-57 1-109 0-114-1m219-63c11-4 18-11 21-23 3-8 3-17 3-68 0-65-1-72-11-82-11-11-13-11-124-11-111 0-113 0-124 11-9 9-10 16-11 75-1 82 2 92 31 99 9 2 30 2 108 2 88 0 99-1 107-3" horiz-adv-x="1000" />

<glyph glyph-name="receipt-minus-1" unicode="&#xe853;" d="M227 797c-91-7-150-55-169-139-1-8-4-25-5-37-2-31-2-641 0-657 6-39 44-67 82-61 6 1 15 3 19 5 4 2 25 16 46 32 43 32 45 33 48 32 2 0 21-19 43-40 22-22 43-42 47-44 25-14 57-13 80 4 5 4 26 24 45 44 28 28 37 36 40 36 3 0 18-10 46-31 50-37 60-41 86-38 32 5 57 30 62 61 1 7 1 87 1 204l0 192 67 1c71 0 77 1 99 9 34 12 64 42 75 77 8 22 9 30 9 104 0 61-1 72-3 85-17 82-77 142-160 159-11 2-42 2-276 3-145 0-271-1-282-1m419-65c-5-11-8-21-9-30-1-8-2-130-2-371 0-333 0-360-3-363-6-6-10-4-50 26-22 16-43 31-48 34-18 9-41 8-62-1-9-5-16-11-52-46-30-30-42-41-45-41-3 0-15 11-46 41-45 45-48 47-69 52-15 3-31 1-44-5-5-3-26-18-48-34-40-30-44-32-50-26-3 3-3 27-3 336l1 332 4 13c6 22 16 40 28 53 6 6 15 13 20 15 11 7 34 14 47 16 6 1 102 2 221 2 200 0 211 0 210-3m145-3c22-7 36-16 54-34 18-18 27-32 35-54l4-13 0-76c0-76 0-76-4-86-7-18-20-31-38-38-9-4-11-4-77-4l-67-1 1 137 0 138 5 8c6 11 15 20 27 25 9 4 11 4 28 3 14 0 22-1 32-5m-537-266c-27-6-33-42-9-56l8-4 122 0 123 0 7 4c20 12 20 41 0 53l-7 4-120 1c-65 0-121-1-124-2" horiz-adv-x="1000" />

<glyph glyph-name="lock-circle" unicode="&#xe854;" d="M472 797c-179-10-336-131-395-301-28-80-32-169-12-252 39-162 167-290 329-329 69-17 143-17 212 0 162 39 290 167 329 329 17 69 17 143 0 212-42 174-186 307-362 336-17 3-70 7-78 6-1 0-12-1-23-1m76-65c44-5 82-17 121-36 118-58 196-168 213-298 6-39 3-91-6-131-12-56-42-119-79-163-37-43-79-76-128-100-54-27-108-39-169-39-61 0-115 12-169 39-117 58-196 168-213 298-5 39-3 91 6 131 8 41 30 93 54 129 62 93 161 155 273 170 23 4 73 4 97 0m-71-144c-43-3-75-17-98-42-22-24-32-55-35-105l-1-22-10-3c-35-10-57-32-66-69-9-33-9-127 0-161 10-42 35-63 82-72 14-3 29-3 151-3 122 0 137 0 151 3 51 9 76 34 85 85 4 22 4 113 0 136-8 43-28 68-64 79l-15 5-1 22c-3 50-13 82-35 106-17 18-39 30-67 36-12 3-49 7-57 7-2 0-10-1-20-2m58-64c31-6 47-20 55-48 1-5 2-18 3-31l1-22-94 0-94 0 1 22c2 32 6 46 19 60 9 9 21 15 38 19 16 3 54 3 71 0m117-168c11-4 17-10 21-22 3-9 3-16 3-67 0-64-1-72-11-82-2-3-9-6-14-8-9-3-19-3-151-3-131 0-141 0-151 3-12 4-18 10-22 22-2 7-3 17-3 60-1 55 0 70 7 83 4 8 13 14 27 16 6 1 69 2 147 1 128 0 138 0 147-3m-161-34c-18-3-34-15-42-33-4-8-4-12-4-23 0-11 0-14 5-23 6-13 15-22 28-27 13-6 32-6 44 0 13 5 22 14 28 27 5 9 5 12 5 24 0 10 0 15-4 22-6 13-15 22-27 28-11 5-20 6-33 5m13-51c3-4 3-7-1-10-6-4-12 5-8 10 3 3 6 3 9 0" horiz-adv-x="1000" />

<glyph glyph-name="level" unicode="&#xe855;" d="M471 797c-109-7-212-54-289-132-57-58-96-127-116-206-7-26-6-37 5-48 16-15 45-7 51 15 0 4 3 13 5 20 8 35 30 83 50 114 29 44 74 88 118 116 104 66 238 78 350 31 50-20 91-48 130-87 51-52 82-109 100-181 6-25 9-31 21-36 14-6 30-2 38 11 5 6 5 8 5 18 0 20-15 67-32 105-47 103-135 187-240 229-62 24-130 35-196 31m8-356c-24-4-51-26-63-49-18-37-11-79 18-108 20-20 45-29 73-27 80 6 115 103 59 159-23 23-53 32-87 25m32-62c27-11 27-47 0-58-7-3-14-3-22 0-26 11-27 46-1 58 8 3 15 4 23 0m-432-85c-6-2-15-13-17-19 0-2-1-5-1-6-1-3 3-25 10-47 20-69 60-136 112-188 91-91 215-138 343-131 114 7 215 54 295 136 53 54 89 116 110 190 10 33 10 45 0 56-6 7-13 10-24 10-9 0-19-5-25-13-2-3-5-14-8-24-13-53-39-105-74-150-14-17-46-48-65-63-97-76-229-100-349-63-128 39-228 145-260 275-5 21-6 23-10 28-9 11-25 15-37 9" horiz-adv-x="1000" />

<glyph glyph-name="document-filter" unicode="&#xe856;" d="M125 796c-31-4-59-30-69-62-2-8-3-18-3-56 0-51 1-57 10-77 9-18 17-29 73-87 30-32 56-60 58-63 2-3 6-9 8-14l4-9 1-89c1-99 1-97 14-118 17-28 45-42 80-41 21 2 28 4 60 25 35 22 46 34 56 62 4 10 4 13 5 86l1 75 5 11c5 10 8 13 68 66 37 32 67 60 72 66 10 13 22 36 26 52 4 13 6 77 3 98-5 39-36 70-74 76-17 2-382 2-398-1m571-10c-12-4-21-17-21-29 0-10 7-23 17-28 2-1 15-4 28-6 63-12 87-23 115-56 22-25 36-59 44-105 6-34 6-54 6-225-1-186-1-180-12-224-19-76-60-117-136-136-44-11-39-11-237-11-164 0-181 0-198 3-104 16-153 56-175 143-10 39-11 49-12 151-1 88-1 95-4 101-11 22-41 23-55 1-3-6-3-6-4-71-1-99 3-153 14-195 23-92 73-148 157-176 35-11 69-17 118-20 41-2 277-2 318 0 49 3 83 9 118 20 96 32 149 102 166 219 5 35 6 87 5 234-1 122-1 149-4 168-10 85-36 144-82 185-12 11-39 28-52 34-16 7-51 16-80 21-27 5-25 5-34 2m-173-54c3-2 7-6 9-9 3-5 3-8 3-44 0-43-1-48-13-65-4-5-32-31-70-65-75-66-78-70-89-106-3-11-4-17-4-85-1-86 1-80-24-96-25-17-32-20-39-20-8 0-19 5-23 12-3 5-3 9-3 82 0 42-1 83-2 90-3 23-14 50-27 67-3 4-30 33-60 64-48 50-55 59-60 69l-6 11 0 39c0 36 0 40 3 46 2 4 6 8 9 10 5 3 10 3 198 3 189 0 193 0 198-3m11-394c-20-4-30-30-18-47 3-3 8-8 12-10 6-3 8-3 113-4 74 0 109 0 115 1 32 7 33 52 2 60-9 2-215 3-224 0m-83-166c-20-5-30-30-18-47 2-4 8-9 11-11 7-3 8-3 155-4 104 0 151 1 157 2 32 6 33 52 2 59-9 3-298 3-307 1" horiz-adv-x="1000" />

<glyph glyph-name="phone-add" unicode="&#xe857;" d="M222 797c-50-3-104-41-136-94-32-55-41-119-27-192 29-145 170-336 349-474 77-58 163-105 229-122 63-17 119-17 169 0 56 19 103 61 127 114 12 26 16 53 11 78-3 19-13 39-24 50-10 10-156 114-173 124-34 18-63 20-93 5-17-8-29-18-55-43l-17-16-9 6c-47 28-159 139-192 192l-6 9 21 22c48 50 58 81 41 125-7 17-8 19-68 103-34 49-55 77-62 84-21 21-53 32-85 29m30-66c5-2 11-6 13-9 6-6 102-142 109-153 7-13 10-23 7-31-3-10-9-16-35-44-14-15-26-29-28-32-7-15-7-37 1-54 21-46 135-167 202-216 34-24 52-31 73-27 15 2 20 5 42 27 27 26 36 34 45 38 10 5 18 4 32-2 13-7 156-107 162-115 13-14 11-44-3-68-11-19-31-40-50-53-13-9-33-18-51-22-17-5-53-6-75-3-101 12-232 90-356 212-118 116-200 245-220 346-5 26-6 74-1 94 4 19 14 42 24 56 10 16 32 38 45 46 22 14 47 18 64 10m486 2c-5-2-12-9-16-15-2-5-3-12-3-46l-1-40-40-1c-44 0-46 0-55-10-5-6-8-13-8-21 0-8 3-15 8-21 9-9 11-10 55-10l40-1 1-40c0-44 1-46 10-55 12-11 30-11 42 0 10 9 10 11 10 55l1 40 40 1c44 0 46 1 55 10 6 6 8 13 8 21 0 8-2 15-8 21-9 10-11 10-55 10l-40 1-1 40c0 34-1 41-3 46-4 6-11 13-17 15-6 2-17 2-23 0" horiz-adv-x="1000" />

</font>
</defs>
</svg>
