<?xml version="1.0" standalone="no"?>
<!DOCTYPE svg PUBLIC "-//W3C//DTD SVG 1.1//EN" "http://www.w3.org/Graphics/SVG/1.1/DTD/svg11.dtd">
<svg xmlns="http://www.w3.org/2000/svg">
<metadata>Copyright (C) 2025 by original authors @ fontello.com</metadata>
<defs>
<font id="fontello" horiz-adv-x="1000" >
<font-face font-family="fontello" font-weight="400" font-stretch="normal" units-per-em="1000" ascent="850" descent="-150" />
<missing-glyph horiz-adv-x="1000" />
<glyph glyph-name="play-1003-svgrepo-com-6-1" unicode="&#xe801;" d="M115 456l456 278c77 46 172-13 172-106v-556c0-94-95-152-172-106l-456 278c-77 47-77 165 0 212z" horiz-adv-x="833" />

<glyph glyph-name="volume-loud-svgrepo-com-1" unicode="&#xe802;" d="M84 362c1 77 2 115 27 148 5 6 12 13 18 18 31 26 72 26 155 26 30 0 44 0 59 4 2 1 5 2 8 3 14 5 26 14 51 31 98 69 146 103 187 88 8-3 16-7 22-12 36-27 38-88 44-212 2-45 3-84 3-106 0-22-1-61-3-106-6-124-8-185-44-212-6-5-14-9-22-12-41-15-89 20-187 88-25 17-37 26-51 31-3 1-6 2-8 3-15 4-29 4-59 4-83 0-124 0-155 26-6 5-13 12-18 18-25 33-26 71-27 148-1 4-1 8-1 12 0 4 0 8 1 12z m728 257c12 11 30 9 41-4l-22-20c22 20 22 20 22 20l0 0 0 0 0 0 0-1c0 0 1-1 1-1 1-1 1-2 2-4 2-3 5-7 8-12 6-11 14-27 22-49 16-43 31-108 31-198 0-89-15-155-31-198-8-22-16-38-22-49-3-5-6-9-8-12-1-2-1-3-2-4 0 0-1-1-1-1l0 0 0-1 0 0c0 0 0 0-22 20l22-20c-11-13-29-14-41-4-12 11-14 30-4 43 0 0 0 0 0 1 1 0 1 0 2 1 1 2 3 5 5 9 4 8 11 21 17 39 14 36 27 94 27 176 0 82-13 140-27 176-6 18-13 31-17 39-2 4-4 7-5 9-1 1-1 1-2 2 0 0 0 0 0 0m-68-77c14 9 31 3 39-12l-25-14c25 14 25 14 25 14l0 0 0 0 0 0 0 0 1-1c0 0 0-1 1-2 0-2 1-4 3-7 2-6 5-15 7-26 6-22 11-56 11-101 0-45-5-79-11-101-2-11-5-20-7-26-2-3-3-5-3-7-1-1-1-2-1-2l-1-1 0 0 0 0 0 0c0 0 0 0-25 14l25-14c-8-15-25-21-39-12-14 8-19 26-11 41l0 0c0 1 1 2 1 4 2 4 4 10 6 18 4 18 8 46 8 86 0 40-4 69-8 86-2 9-4 15-6 18 0 2-1 3-1 4l0 0c-8 15-3 33 11 41z" horiz-adv-x="1000" />

<glyph glyph-name="play-1003-svgrepo-com-6" unicode="&#xe803;" d="M856 482l-570 348c-96 58-215-16-215-133v-694c0-117 119-191 215-133l570 348c97 58 97 206 0 264z" horiz-adv-x="1000" />

<glyph glyph-name="group-194" unicode="&#xe806;" d="M685 456l-456 278c-77 46-172-13-172-106v-556c0-94 95-152 172-106l456 278c77 47 77 165 0 212z m533 0l-456 278c-76 46-171-13-171-106v-556c0-94 95-152 171-106l456 278c77 47 77 165 0 212z" horiz-adv-x="1333" />

<glyph glyph-name="group-195" unicode="&#xe807;" d="M648 456l457 278c76 46 171-13 171-106v-556c0-94-95-152-171-106l-457 278c-77 47-77 165 0 212z m-533 0l456 278c77 46 172-13 172-106v-556c0-94-95-152-172-106l-456 278c-77 47-77 165 0 212z" horiz-adv-x="1333" />

<glyph glyph-name="share-2(1)" unicode="&#xe809;" d="M750 517c69 0 125 56 125 125 0 69-56 125-125 125-69 0-125-56-125-125 0-69 56-125 125-125z m-500-292c69 0 125 56 125 125 0 69-56 125-125 125-69 0-125-56-125-125 0-69 56-125 125-125z m500-292c69 0 125 56 125 125 0 69-56 125-125 125-69 0-125-56-125-125 0-69 56-125 125-125z m-392 354l285-166m-1 458l-284-166" horiz-adv-x="1000" />

<glyph glyph-name="zap" unicode="&#xe80a;" d="M542 767l-417-500h375l-42-334 417 500h-375l42 334z" horiz-adv-x="1000" />

<glyph glyph-name="facebook" unicode="&#xe80c;" d="M750 767h-125c-55 0-108-22-147-61-39-39-61-92-61-148v-125h-125v-166h125v-334h166v334h125l42 166h-167v125c0 11 5 22 13 30 7 8 18 12 29 12h125v167z" horiz-adv-x="1000" />

<glyph glyph-name="twitter" unicode="&#xe80f;" d="M958 725c-40-28-84-50-130-64-26 29-59 50-96 59-37 9-76 7-112-7-36-13-66-38-88-69-21-32-32-69-32-108v-41c-73-2-146 14-211 47-66 33-122 81-164 141 0 0-167-375 208-541-85-59-188-88-291-84 375-208 833 0 833 480 0 11-1 23-3 34 42 42 72 95 86 153z" horiz-adv-x="1000" />

<glyph glyph-name="linkedin(1)" unicode="&#xe810;" d="M667 517c66 0 130-27 176-74 47-46 74-110 74-176v-292h-167v292c0 22-9 43-24 59-16 15-37 24-59 24-22 0-44-9-59-24-16-16-25-37-25-59v-292h-166v292c0 66 26 130 73 176 47 47 110 74 177 74z m-417-42h-167v-500h167v500z m-83 125c46 0 83 37 83 83 0 46-37 84-83 84-46 0-84-38-84-84 0-46 38-83 84-83z" horiz-adv-x="1000" />

<glyph glyph-name="calendar-svgrepo-com-1" unicode="&#xe811;" d="M125 433h750m-583 292v-83m416 83v-83m-450-667h484c46 0 70 0 88 9 15 8 28 21 36 37 9 17 9 41 9 87v400c0 47 0 70-9 88-8 16-21 29-36 37-18 9-42 9-88 9h-484c-46 0-70 0-87-9-16-8-29-21-37-37-9-18-9-41-9-88v-400c0-46 0-70 9-87 8-16 21-29 37-37 17-9 41-9 87-9z" horiz-adv-x="1000" />

<glyph glyph-name="frame-4" unicode="&#xe812;" d="M729 443c-30 0-54-24-54-54 0-29 24-53 54-53 29 0 53 24 53 53 0 30-24 54-53 54z m-215-375c-31 0-61 4-90 10l-126-76 1 124c-96 58-160 154-160 263 0 178 168 322 375 322 207 0 375-144 375-322 0-177-168-321-375-321z m0 696c-236 0-428-168-428-375 0-118 63-223 160-292v-190l188 114c26-4 53-7 80-7 237 0 429 168 429 375 0 207-192 375-429 375z m-214-321c-30 0-54-24-54-54 0-29 24-53 54-53 30 0 54 24 54 53 0 30-24 54-54 54z m214 0c-29 0-53-24-53-54 0-29 24-53 53-53 30 0 54 24 54 53 0 30-24 54-54 54z m-93-350l6-1c28-6 57-10 87-10 202 0 361 140 361 307 0 168-159 307-361 307-201 0-360-139-360-307 0-103 60-195 153-251l7-4-2-107 109 66z m-123-91l1 124c-96 58-160 154-160 263 0 178 168 322 375 322 207 0 375-144 375-322 0-177-168-321-375-321-31 0-61 4-90 10l-126-76z m-52 95c-97 69-160 174-160 292 0 207 192 375 428 375 237 0 429-168 429-375 0-207-192-375-429-375-27 0-54 3-80 7l-188-114v190z m191-91c25-4 51-6 77-6 243 0 443 173 443 389 0 217-200 390-443 390-242 0-443-173-443-390 0-121 64-228 161-299v-208l205 124z m224 383c0 38 30 68 68 68 37 0 67-30 67-68 0-37-30-68-67-68-38 0-68 31-68 68z m-429 0c0 38 31 68 68 68 38 0 68-30 68-68 0-37-30-68-68-68-37 0-68 31-68 68z m214 0c0 38 31 68 68 68 38 0 68-30 68-68 0-37-30-68-68-68-37 0-68 31-68 68z m229 0c0 30 24 54 54 54 29 0 53-24 53-54 0-29-24-53-53-53-30 0-54 24-54 53z m-429 0c0 30 24 54 54 54 30 0 54-24 54-54 0-29-24-53-54-53-30 0-54 24-54 53z m215 0c0 30 24 54 53 54 30 0 54-24 54-54 0-29-24-53-54-53-29 0-53 24-53 53z" horiz-adv-x="1000" />

<glyph glyph-name="clock-svgrepo-com-1" unicode="&#xe813;" d="M500 767c-230 0-417-187-417-417 0-230 187-417 417-417 230 0 417 187 417 417 0 230-187 417-417 417z m181-566c-6-10-16-15-27-15-5 0-11 1-16 4l-129 78c-32 19-56 61-56 98v171c0 17 15 31 32 31 17 0 31-14 31-31v-171c0-15 12-37 25-45l129-77c15-9 20-28 11-43z" horiz-adv-x="1000" />

<glyph glyph-name="document-1-svgrepo-com-1" unicode="&#xe814;" d="M854 425h-120c-99 0-179 81-179 180v120c0 23-19 42-42 42h-177c-128 0-232-84-232-232v-370c0-148 104-232 232-232h328c128 0 232 84 232 232v219c0 23-19 41-42 41z m-196 333c-17 17-46 5-46-18v-146c0-61 51-111 114-111 40 0 95 0 142 0 24 0 36 27 20 44-60 61-168 169-230 231z" horiz-adv-x="1000" />

<glyph glyph-name="document-download-svgrepo-com-1" unicode="&#xe815;" d="M854 425h-120c-99 0-179 81-179 180v120c0 23-19 42-42 42h-177c-128 0-232-84-232-232v-370c0-148 104-232 232-232h328c128 0 232 84 232 232v219c0 23-19 41-42 41z m-342-232l-84-84c-3-3-6-5-10-6-4-2-8-3-12-3-4 0-8 1-11 3-4 1-7 3-10 6 0 0 0 0 0 1l-84 83c-12 12-12 32 0 44 12 12 32 12 44 0l30-30v174c0 17 14 32 31 32 17 0 32-15 32-32v-174l30 30c12 12 32 12 44 0 12-12 12-32 0-44z m214 290c40 0 95 0 142 0 24 0 36 27 20 44-60 61-168 169-230 231-17 17-46 5-46-18v-146c0-61 51-111 114-111z" horiz-adv-x="1000" />

<glyph glyph-name="eye-svgrepo-com-(1)-1" unicode="&#xe816;" d="M885 469c-96 151-237 238-385 238-74 0-146-22-212-62-66-41-125-100-173-176-42-66-42-172 0-237 96-152 237-239 385-239 74 0 146 22 212 62 66 41 125 101 173 177 42 65 42 171 0 237z m-385-287c-93 0-168 75-168 168 0 93 75 168 168 168 93 0 168-75 168-168 0-93-75-168-168-168z m0 287c-65 0-119-53-119-119 0-65 54-119 119-119 65 0 119 54 119 119 0 65-54 119-119 119z" horiz-adv-x="1000" />

<glyph glyph-name="folder-svgrepo-com-1" unicode="&#xe817;" d="M876 517c16-24-3-52-32-52h-719c-23 0-42 18-42 41v77c0 101 83 184 185 184h96c68 0 89-22 116-59l59-77c13-17 14-19 39-19h116c75 0 142-38 182-95z m-2-115c23 0 42-18 42-41l1-205c0-123-100-223-223-223h-388c-123 0-223 100-223 223v204c0 23 19 42 42 42l749 0z" horiz-adv-x="1000" />

<glyph glyph-name="frame-svgrepo-com-1" unicode="&#xe818;" d="M500 767c109 0 198-89 198-198 0-107-84-194-193-198-3 1-7 1-9 0-1 0-1 0-2 0-1 0-1 0-1 0-107 4-190 91-191 198 0 109 89 198 198 198z m-212-506c117 77 306 77 423 0 53-36 82-84 82-135 0-51-29-99-81-134-59-39-135-59-212-59-77 0-153 20-212 59-52 36-81 83-81 135 0 51 29 99 81 134z" horiz-adv-x="1000" />

<glyph glyph-name="home-svgrepo-com-(1)-1-1" unicode="&#xe81c;" d="M869 501l-289 231c-44 36-116 36-160 1l-289-232c-33-26-53-80-46-121l55-332c10-59 67-107 127-107h466c60 0 117 49 127 107l55 332c7 41-14 95-46 121z m-369-297c-57 0-104 47-104 104 0 58 47 105 104 105 58 0 104-47 104-105 0-57-46-104-104-104z" horiz-adv-x="1000" />

<glyph glyph-name="image-svgrepo-com-1" unicode="&#xe81d;" d="M917 149l-130 305c-24 56-59 88-100 90-40 2-78-26-108-79l-79-142c-17-30-40-48-66-50-27-3-53 11-74 38l-9 12c-30 37-66 55-104 51-37-4-70-30-91-72l-72-144c-26-52-23-112 7-161 31-50 84-79 141-79h532c56 0 108 28 139 74 32 47 37 106 14 157z m-627 352c78 0 141 63 141 141 0 77-63 141-141 141-77 0-140-64-140-141 0-78 63-141 140-141z" horiz-adv-x="1000" />

<glyph glyph-name="link-2-svgrepo-com-1" unicode="&#xe81f;" d="M302 350c0 17 14 31 31 31h125v157c0 22-18 41-41 41h-93c-131 0-246-107-241-238 3-60 28-113 67-153 42-41 99-67 163-67h104c23 0 41 19 41 42v156h-125c-17 0-31 14-31 31z m548 162c-42 41-99 67-162 67h-105c-23 0-41-19-41-41v-157h125c17 0 31-14 31-31 0-17-14-31-31-31h-125v-156c0-23 18-42 41-42h93c132 0 246 107 240 238-2 60-27 114-66 153z m-308-131h-84v-62h84v62z" horiz-adv-x="1000" />

<glyph glyph-name="link-square-svgrepo-com-1" unicode="&#xe820;" d="M675 767h-350c-151 0-242-91-242-242v-349c0-152 91-243 242-243h349c152 0 242 91 242 242v350c1 151-90 242-241 242z m-334-616c-1 0-2 0-3 0-40 4-78 23-107 53-66 70-66 184 0 254l92 95c32 35 76 54 122 54 47 0 91-19 123-54 67-70 67-183 0-253l-45-48c-12-13-32-13-44-2-13 13-13 32-1 45l45 48c44 46 44 121 0 167-41 43-114 43-155 0l-92-96c-44-46-44-121 0-167 18-19 42-31 68-34 17-1 29-17 28-34-2-16-15-28-31-28z m428 91l-91-96c-33-34-77-53-123-53-47 0-91 19-123 53-67 70-67 184 0 254l45 48c12 12 32 13 44 1 13-12 13-31 2-44l-46-48c-44-46-44-122 0-167 41-44 114-44 156 0l91 95c44 47 44 122 0 168-18 19-42 31-68 33-17 2-29 17-28 34 2 18 17 30 35 28 40-4 78-22 106-52 66-70 66-184 0-254z" horiz-adv-x="1000" />

<glyph glyph-name="menu-svgrepo-com-1" unicode="&#xe821;" d="M269 483c-68 0-123 55-123 123 0 68 55 124 123 124 68 0 124-56 124-124 0-68-56-123-124-123z m462 0c-68 0-123 55-123 123 0 68 55 124 123 124 68 0 123-56 123-124 0-68-55-123-123-123z m-462-513c-68 0-123 56-123 124 0 68 55 123 123 123 68 0 124-55 124-123 0-68-56-124-124-124z m462 0c-68 0-123 56-123 124 0 68 55 123 123 123 68 0 123-55 123-123 0-68-55-124-123-124z" horiz-adv-x="1000" />

<glyph glyph-name="message-2-svgrepo-com-1" unicode="&#xe823;" d="M334 682h361c108 0 180-72 180-180v-217c0-108-72-180-180-180h-145l-160-107c-24-16-56 1-56 30v77c-108 0-181 72-181 180v217c0 108 73 180 181 180z m54-318h253c14 0 27 12 27 27 0 15-13 27-27 27h-253c-15 0-27-12-27-27 0-15 12-27 27-27z" horiz-adv-x="1000" />

<glyph glyph-name="message-favorite-svgrepo-com-1" unicode="&#xe824;" d="M874 808h-123c-53 0-84-31-84-84v-123c0-53 31-84 84-84h123c53 0 84 31 84 84v123c0 53-31 84-84 84z m26-153c-15-49-69-76-87-76-19 0-73 26-88 76-3 8-4 16-4 24 0 27 14 55 42 64 17 5 36 2 49-8 13 10 31 13 49 8 38-12 50-55 39-88z m-149-201c-81 0-147 66-147 147v124c0 23-19 42-41 42h-271c-115 0-209-93-209-208v-290c0-115 94-209 209-209h62c12 0 27-7 34-16l62-83c28-37 73-37 100 0l63 83c7 10 20 16 33 16h63c115 0 208 93 208 208v145c0 22-19 41-42 41h-124z m-418-104c-23 0-41 19-41 42 0 23 18 41 41 41 23 0 42-18 42-41 0-23-18-42-42-42z m167 0c-23 0-42 19-42 42 0 23 19 41 42 41 23 0 42-18 42-41 0-23-19-42-42-42z" horiz-adv-x="1000" />

<glyph glyph-name="music-dashboard-svgrepo-com-1" unicode="&#xe825;" d="M292 715v-730c0-26-26-48-52-41-100 29-157 111-157 231v350c0 120 57 202 157 230 26 7 52-13 52-40z m228-464c-16 0-29-13-29-28 0-15 13-28 29-28 15 0 28 13 28 28 0 15-13 28-28 28z m210 39c-16 0-29-13-29-29 0-16 13-28 29-28 16 0 29 13 29 28 0 15-13 29-29 29z m-55 477h-279c-23 0-42-19-42-42v-750c0-23 19-42 42-42h279c133 0 242 109 242 242v350c0 133-109 242-242 242z m142-323v-183c0-1-1-1-1-1-1-47-39-85-86-85-47 0-86 38-86 86 0 47 39 86 86 86 10 0 20-2 29-5v64l-153-41v-143c0 0-1-1-1-1 0-47-39-85-86-85-47 0-86 39-86 86 0 48 39 86 86 86 10 0 20-2 29-5v83 68c0 36 22 65 57 74l114 32c36 9 58 0 71-10 18-14 26-35 26-65v-41h1z" horiz-adv-x="1000" />

<glyph glyph-name="picture-frame-svgrepo-com-1" unicode="&#xe826;" d="M438 383l-92 367c-2 10-11 17-21 17-133 0-242-109-242-242v-238c0-14 14-24 28-20l312 90c11 3 18 14 15 26z m25-103c-3 12-15 19-26 16l-338-99c-9-3-16-11-16-21v0c0-134 109-243 242-243h197c14 0 24 13 21 27l-80 320z m212 487h-240c-14 0-24-13-21-27l198-790c2-10 11-17 21-17h41c134 0 243 109 243 242v350c0 133-109 242-242 242z" horiz-adv-x="1000" />

<glyph glyph-name="play-cricle-svgrepo-com-1" unicode="&#xe827;" d="M795 24c-8 0-16 3-22 9-12 12-12 32 0 45 150 150 150 395 0 545-12 12-12 32 0 44 12 12 32 12 44 0 174-175 174-459 0-634-6-6-14-9-22-9z m-590 0c-7 0-15 3-22 9-174 175-174 459 0 634 12 12 32 12 45 0 12-12 12-32 0-44-151-151-151-395 0-545 12-13 12-33 0-45-7-6-15-9-23-9z m295-120c-52 0-102 8-148 25-16 5-25 23-19 40 6 16 23 25 40 19 40-14 82-21 127-21 45 0 88 7 127 21 17 5 35-3 40-19 6-17-2-35-19-40-46-17-96-25-148-25z m137 807c-3 0-7 0-10 2-39 14-82 21-127 21-45 0-87-8-127-21-17-6-34 3-40 19-6 16 3 34 19 40 47 16 96 24 148 24 52 0 102-8 148-24 16-6 25-24 19-40-5-13-17-21-30-21z" horiz-adv-x="1000" />

<glyph glyph-name="play-cricle-svgrepo-com-2" unicode="&#xe828;" d="M795 24c-8 0-16 3-22 9-12 12-12 32 0 45 150 150 150 395 0 545-12 12-12 32 0 44 12 12 32 12 44 0 174-175 174-459 0-634-6-6-14-9-22-9z m-590 0c-7 0-15 3-22 9-174 175-174 459 0 634 12 12 32 12 45 0 12-12 12-32 0-44-151-151-151-395 0-545 12-13 12-33 0-45-7-6-15-9-23-9z m295-120c-52 0-102 8-148 25-16 5-25 23-19 40 6 16 23 25 40 19 40-14 82-21 127-21 45 0 88 7 127 21 17 5 35-3 40-19 6-17-2-35-19-40-46-17-96-25-148-25z m137 807c-3 0-7 0-10 2-39 14-82 21-127 21-45 0-87-8-127-21-17-6-34 3-40 19-6 16 3 34 19 40 47 16 96 24 148 24 52 0 102-8 148-24 16-6 25-24 19-40-5-13-17-21-30-21z m-273-361v70c0 86 61 122 136 78l61-35 60-35c75-43 75-114 0-157l-60-35-61-35c-75-43-136-8-136 79v70z" horiz-adv-x="1000" />

<glyph glyph-name="quote-down-circle-svgrepo-com-1" unicode="&#xe829;" d="M500 767c-230 0-417-187-417-417 0-230 187-417 417-417 230 0 417 187 417 417 0 230-187 417-417 417z m-16-535c0-46-36-81-81-81h-62c-44 0-81 36-81 81v111c0 128 28 157 103 201 5 3 10 4 16 4 11 0 21-5 27-15 9-15 4-34-11-43-50-29-68-40-71-115h79c46 0 81-36 81-81v-62h0z m256 0c0-46-36-81-81-81h-62c-45 0-81 36-81 81v111c0 128 28 157 102 201 5 3 11 4 16 4 11 0 21-5 27-15 9-15 4-34-11-43-50-30-67-41-71-116h80c45 0 81-36 81-81v-61z" horiz-adv-x="1000" />

<glyph glyph-name="search-normal-svgrepo-com-1-1" unicode="&#xe82b;" d="M459 16c207 0 375 168 375 375 0 208-168 376-375 376-208 0-376-168-376-376 0-207 168-375 376-375z m457 44c-13 26-43 40-82 40-29 0-55-12-70-33-15-21-18-49-9-77 18-54 49-66 66-68 3 0 5 0 8 0 19 0 47 8 74 49 22 32 27 64 13 89z" horiz-adv-x="1000" />

<glyph glyph-name="sms-notification-svgrepo-com-1" unicode="&#xe82c;" d="M813 517c57 0 104 46 104 104 0 57-47 104-104 104-58 0-105-47-105-104 0-58 47-104 105-104z m0 0c57 0 104 46 104 104 0 57-47 104-104 104-58 0-105-47-105-104 0-58 47-104 105-104z m50-55c-29-9-61-11-94-2-56 14-101 59-117 115-7 27-8 53-3 78 5 26-14 51-40 51h-317c-125 0-209-62-209-208v-292c0-146 84-208 209-208h416c125 0 209 62 209 208v219c0 27-27 48-54 39z m-216-77l-49-39c-28-22-63-33-98-33-35 0-70 11-97 33l-131 104c-13 11-15 31-5 45 11 13 31 15 44 5l130-105c32-25 86-25 117 0l50 40c13 10 33 8 43-5 11-14 9-34-4-45z" horiz-adv-x="1000" />

<glyph glyph-name="tag-svgrepo-com-1" unicode="&#xe82d;" d="M826 488l-188 188c-40 40-95 61-150 58l-209-10c-83-4-149-70-154-153l-10-208c-2-56 19-110 58-150l189-189c78-77 203-77 281 0l183 183c78 77 78 203 0 281z m-430-154c-66 0-120 54-120 120 0 66 54 120 120 120 66 0 120-54 120-120 0-66-54-120-120-120z" horiz-adv-x="1000" />

<glyph glyph-name="unlimited-svgrepo-com-1" unicode="&#xe82f;" d="M693 140c-67 0-129 31-169 86-9 13-6 32 7 42 13 10 31 7 41-7 29-39 73-61 121-61 82 0 150 67 150 150 0 84-67 151-150 151-57 0-110-30-139-78l-105-175c-40-66-112-107-189-107-116 0-211 94-211 210 0 116 95 210 211 210 66 0 128-31 168-86 9-13 7-32-7-42-13-10-31-6-41 7-29 38-72 61-120 61-83 0-151-68-151-151 0-83 68-151 151-151 56 0 109 30 138 78l106 175c39 67 112 107 189 107 116 0 210-94 210-210 0-116-95-209-210-209z m-435 131c44 0 79 35 79 79 0 44-35 79-79 79-44 0-79-35-79-79 0-44 35-79 79-79z m436 0c44 0 80 35 80 79 0 44-36 79-80 79-43 0-79-35-79-79 0-44 36-79 79-79z" horiz-adv-x="952" />

<glyph glyph-name="video-play-svgrepo-com-1" unicode="&#xe830;" d="M614 767h-228v-182h228v182z m62 0v-182h235c-21 115-106 181-235 182z m-593-244v-348c0-151 91-242 242-242h350c151 0 242 91 242 242v348h-834z m519-347l-87-50c-18-11-36-16-53-16-12 0-24 3-34 9-24 14-38 42-38 79v100c0 36 14 65 38 78 24 14 55 12 87-7l87-50c32-18 49-44 49-72 0-28-18-52-49-71z m-278 591c-129-1-214-67-235-182h235v182z" horiz-adv-x="1000" />

<glyph glyph-name="archive-minus-svgrepo-com-2" unicode="&#xe832;" d="M299 767h402c89 0 161-73 161-161v-587c0-75-54-107-120-71l-203 113c-22 12-57 12-78 0l-203-113c-66-36-120-5-120 71v587c0 88 72 161 161 161z m97-392h208c17 0 31 14 31 31 0 17-14 32-31 32h-208c-17 0-31-15-31-32 0-17 14-31 31-31z" horiz-adv-x="1000" />

<glyph glyph-name="bag-2-svgrepo-com-2" unicode="&#xe836;" d="M832 477c-28 31-70 49-129 55v31c0 58-24 113-66 151-43 39-99 57-157 52-100-10-183-106-183-210v-24c-59-6-101-24-129-55-40-45-39-105-34-147l29-232c9-81 42-165 221-165h232c179 0 212 84 221 165l29 233c5 41 6 101-34 146z m-346 231c42 4 81-9 112-37 30-28 47-67 47-108v-29h-290v22c0 74 61 145 131 152z m-135-406h-1c-22 0-41 19-41 42 0 23 19 42 41 42 24 0 43-19 43-42 0-23-19-42-42-42z m292 0h-1c-23 0-42 19-42 42 0 23 19 42 42 42 23 0 42-19 42-42 0-23-19-42-41-42z" horiz-adv-x="1000" />

<glyph glyph-name="calendar-2-svgrepo-com-1" unicode="&#xe838;" d="M698 702v65c0 17-14 31-31 31-17 0-32-14-32-31v-63h-270v63c0 17-15 31-32 31-17 0-31-14-31-31v-65c-112-11-167-78-175-177-1-12 9-22 21-22h705c12 0 22 10 20 22-8 99-63 166-175 177z m135-262h-666c-23 0-42-19-42-42v-256c0-125 63-209 208-209h334c146 0 208 84 208 209v256c0 23-19 42-42 42z m-449-349c-4-3-9-6-14-8-5-3-10-4-16-4-5 0-11 1-16 4-5 2-9 5-13 8-8 8-12 19-12 30 0 11 4 22 12 29 4 4 8 7 13 9 10 4 22 4 32 0 5-2 10-5 14-9 7-7 12-18 12-29 0-11-5-22-12-30z m9 160c-3-5-5-10-9-14-4-4-9-7-14-9-5-2-10-3-16-3-5 0-11 1-16 3-5 2-9 5-13 9-4 4-7 9-9 14-2 5-3 10-3 16 0 5 1 11 3 16 2 5 5 9 9 13 4 4 8 7 13 9 10 4 22 4 32 0 5-2 10-5 14-9 4-4 6-8 9-13 2-5 3-11 3-16 0-6-1-11-3-16z m137-14c-5-4-9-7-14-9-5-2-11-3-16-3-5 0-11 1-16 3-5 2-9 5-14 9-7 8-12 19-12 30 0 11 5 21 12 29 5 4 9 7 14 9 10 5 22 5 32 0 5-2 9-5 14-9 7-8 12-18 12-29 0-11-5-22-12-30z" horiz-adv-x="1000" />

<glyph glyph-name="chart-21-svgrepo-com-1-1" unicode="&#xe83b;" d="M704 767h-364c-159 0-253-91-253-242v-349c0-152 94-243 253-243h364c158 0 252 91 252 242v350c1 151-94 242-252 242z m-273-592c0-26-23-48-51-48-28 0-50 22-50 48v136c0 27 22 49 50 49 28 0 51-22 51-49v-136z m283 0c0-26-23-48-50-48-29 0-51 22-51 48v350c0 26 22 48 51 48 27 0 50-22 50-48v-350z" horiz-adv-x="1043" />

<glyph glyph-name="vector-3" unicode="&#xe83e;" d="M500 806c-252 0-455-203-455-456 0-253 203-456 455-456 251 0 454 203 454 456 0 253-203 456-454 456z m288-260h-83c-9 40-22 77-37 110 28-16 55-36 77-58 16-16 30-32 42-50l1-2z m59-196c0-31-4-61-12-89h-113c2 28 4 58 4 89 0 31-2 61-4 89h113c8-28 12-58 12-89z m-347-349c-9 0-37 18-66 74-11 24-22 51-29 79h191c-9-28-18-55-30-79-28-56-56-74-65-74h-1z m-116 260c-3 28-4 59-4 89 0 30 1 59 4 89h231c3-28 4-59 4-89 0-30-1-59-4-89h-231z m-232 89c0 31 4 61 12 89h114c-3-28-5-58-5-89 0-31 2-61 5-89h-114c-8 28-12 58-12 89z m348 349c8 0 37-18 65-74 11-24 22-51 29-79h-191c9 28 18 55 30 79 28 56 56 74 65 74h2z m-169-43c-15-33-27-70-37-110h-83c12 18 27 36 41 51 24 23 49 43 77 58l2 1z m-120-502h83c9-40 22-77 37-110-28 16-55 36-77 58-16 16-30 33-42 50l-1 2z m457-110c15 33 27 70 37 110h83c-12-18-27-36-41-51-24-23-49-43-77-58l-2-1z" horiz-adv-x="1000" />

<glyph glyph-name="vector" unicode="&#xe83f;" d="M267-114c-33 4-62 16-91 32-62 36-109 101-124 173-6 27-6 62-6 279 0 233 0 222 12 260 6 19 21 52 33 68 41 61 100 100 174 115 15 3 37 3 234 3 241 0 234 0 274-12 78-25 139-85 167-162 13-37 13-42 15-138v-86l-15-11c-22-15-50-41-90-83-46-49-92-94-116-113-50-40-97-64-143-73-25-4-65-3-89 3-21 6-21 6-28-18-6-19-10-40-12-59v-16h-7c-48 9-94 50-111 96-6 15-9 31-11 48v13l-12 11c-25 22-41 50-45 80-9 46 13 98 59 145 49 51 121 90 192 104 25 6 71 8 93 3 45-7 80-29 103-63 7-11 7-12 7-23 0-7-3-13-7-19-18-25-71-52-129-65-102-23-166 5-156 68 0 6 2 12 0 12 0 0-11-5-22-12-19-13-35-39-40-63 0-5-1-16 0-25 0-13 2-18 8-28 3-7 10-18 16-22l9-11-5-4c-10-15-19-30-26-48-8-22-9-47-5-70 5-17 17-43 28-56 9-10 31-30 34-30 0 0 2 2 2 5 0 9 7 37 13 52 17 41 52 76 110 107 9 4 37 18 60 29 54 24 82 41 98 51 46 33 74 80 83 141 3 22 3 64 0 86-15 95-84 159-186 170-113 12-258-76-347-211-43-66-72-138-84-211-5-29-6-81-3-107 7-67 31-119 74-162 21-21 46-39 72-51 92-44 194-44 283-3 39 18 77 46 117 88 40 40 67 73 139 174 40 55 73 92 87 101l6 3v-121c0-115-1-120-6-138-23-104-97-180-201-203l-18-5h-223c-184 0-227 0-240 2h-4z" horiz-adv-x="1000" />

<glyph glyph-name="group" unicode="&#xe840;" d="M472 850h3c0-79 0-236 0-236-76 41-151 83-225 126 49 28 98 57 148 83 24 14 49 24 75 27l-1 0z m3 0h6c29-3 56-16 80-31 47-27 93-54 140-80-75-42-151-85-226-127 0 79 0 158 0 237v1z m-225-111l225-127-227-133c0 0 0 84 0 126 0 43 0 132 0 132l2 2z m451 1c0-79 0-157 0-236 0-8 0-24 0-24l-226 134c0 0 151 84 226 126z m2-1c50-29 99-58 149-87 24-13 49-28 63-53-72-39-212-117-212-117 0 0 0 16 0 23v234z m-597-82c48 28 144 83 144 83v-258c0 0-142 78-213 117 15 27 43 45 69 59v-1z m-85-162c0 34 0 71 16 102 71-38 211-117 211-117-75-45-150-89-227-132v147z m894 102c13-25 16-56 14-84v-167l-228 134c0 0 142 79 212 117h2z m-667-117l227-126c0 0 0-132 0-196 0-21 0-63 0-63-76 42-151 85-227 127v260-2z m-227-132c75 44 151 89 227 132 0-86 0-172 0-258-11 4-22 11-34 17-65 36-128 73-193 107v2z m682 132v-159c0-34 0-67 0-101-76-42-227-126-227-126 0 0 0 41 0 62 0 64 0 196 0 196l227 127v1z m0 0c0 0 228-132 228-134-76-41-228-126-228-126 0 34 0 67 0 101v159z m-682-134c65-35 128-71 193-107 12-6 23-13 34-17-69-42-139-82-208-124-8 11-11 24-14 37-4 23-4 43-4 66v145h-1z m908 2c0-51 0-103 0-153 0-33 0-67-17-97-63 37-211 124-211 124 0 0 153 84 228 126z m-889-250c69 40 139 82 208 122 0-86 0-172 0-259-48 29-99 57-148 85-23 14-45 28-60 52z m208 124c76-42 151-85 227-127-76-44-227-132-227-132 0 86 0 172 0 259z m453-2c0-86 0-172 0-259-59 36-119 70-180 106-15 9-46 27-46 27 0 0 151 84 226 126z m2 2c0 0 146-87 210-124-9-15-24-27-37-37-24-15-47-28-71-43-34-19-67-39-101-57 0 87 0 173 0 259l-1 2z m-228-127v-245c-19 3-40 7-56 16-58 31-114 64-172 95 75 45 151 88 226 133l2 1z m0 0c0 0 31-18 46-27 61-35 121-69 180-105-57-33-117-66-174-98-15-8-31-14-48-14h-4v246-2z" horiz-adv-x="933" />

<glyph glyph-name="vector-1" unicode="&#xe841;" d="M479 745c-351 0-527-426-278-675 154-154 404-154 558 0 74 75 115 176 115 280 0 218-176 395-394 395h-1z m-223-198c19 98 148 125 204 42 56-83-17-193-114-174-61 12-101 71-89 132h-1z m164-341c-19-98-148-125-204-42-57 83 16 193 114 174 60-12 100-71 88-132h2z m47 92c-43 9-55 65-19 90 37 26 86-7 77-50-5-27-31-45-58-40z m235-146c-19-98-148-125-204-41-56 83 17 193 114 173 61-11 101-71 89-132h1z m-74 210c-97 19-124 148-41 205 83 56 192-17 173-115-12-61-71-101-132-89v-1z m-88-440l86-24c75-19 152 25 171 100l24 90c-68-90-170-151-283-168l2 2z m290 747l-89 24c92-70 151-175 164-290l25 94c20 76-25 153-100 172z m-779-388l-20-77c-20-76 25-153 99-172l80-21c-86 67-142 165-160 272l1-2z m367 498l-83 23c-75 20-152-26-171-100l-21-79c70 86 167 143 277 158l-2-2z" horiz-adv-x="1000" />

<glyph glyph-name="vector-2" unicode="&#xe842;" d="M607 789c-99 24-201 24-301 0-142-34-253-145-287-288-23-100-23-202 0-302 34-142 145-254 287-288 100-24 202-24 301 0 142 34 253 146 287 288 24 100 24 202 0 302-34 143-145 254-287 288z m-324-438c0 96 78 175 174 175 97 0 175-79 175-175 0-97-78-176-175-176-96 0-174 79-174 176z m174 116c-63 0-115-52-115-116 0-64 52-116 115-116 64 0 116 52 116 116 0 64-52 116-116 116z m194 53c27 0 49 22 49 49 0 27-22 49-49 49-26 0-49-22-49-49 0-27 23-49 49-49z" horiz-adv-x="933" />
</font>
</defs>
</svg>
